Важное объявление!
У Нас Все раздачи мультитрекерные, при нуле пиров в релизах, можете смело вставать на закачку!
 
Автор Сообщение

HUNTER

Стаж:
4 года 4 месяца
Сообщений:
56809

Репутация: 101

[+] [-]
Вне форума [Профиль] [ЛС]

Пирамида сынов Солнца / Die Pyramide des Sonnengottes
Страна: Германия (ФРГ), Франция, Италия
Жанр: приключения, вестерн
Год выпуска: 1965
Продолжительность: 01:38:36
Перевод: Профессиональный (многоголосый закадровый)
Cубтитры: нет
Оригинальная аудиодорожка: немецкая
Режиссер: Роберт Сьодмак / Robert Siodmak
В ролях: Лекс Баркер, Мишель Жирардон, Жерар Баррэ, Ганс Нилсен, Рик Батталья, Густаво Рохо, Тереза Лорка, Ральф Вольтер, Kelo Henderson, Алессандра Панаро
Описание: В 1864 году в Мексике вопреки воле народа к власти пришел ставленник Наполеона III эрцгерцог Максимилиан Австрийский. Зреет революционное движение. Лидеру повстанцев Бенито Хуаресу через немецкого врача передает послание президент США Линкольн...

Сэмпл: http://yadi.sk/d/XrVExWCs2_OKy
Тип релиза: BDRip 720p
Контейнер: MKV
Видео: 1280x544 at 23.976 fps, x264@L4.1, ~5850 kbps avg
Аудио: Russian 48 kHz, AC3, 2/0 (L,R) ch, ~192.00 kbps avg
Аудио 2: German DTS / 2.0 / 48 kHz / 755 kbps / 24 bit

MediaInfo

D:\Кино HD\Die Pyramide des Sonnengottes.1965.BDrip720p.Rus.Ger.mkv
General
Unique ID : 253784474152194668033029731755477051218 (0xBEED1CA02BFC6780918993C183262752)
Complete name : D:\Кино HD\Die Pyramide des Sonnengottes.1965.BDrip720p.Rus.Ger.mkv
Format : Matroska
Format version : Version 4 / Version 2
File size : 4.69 GiB
Duration : 1h 38mn
Overall bit rate : 6 814 Kbps
Encoded date : UTC 2013-02-06 06:35:51
Writing application : mkvmerge v6.0.0 ('Coming Up For Air') built on Jan 20 2013 09:52:00
Writing library : libebml v1.3.0 + libmatroska v1.4.0
Video #1
ID : 1
Format : AVC
Format/Info : Advanced Video Codec
Format profile : High@L4.1
Format settings, CABAC : Yes
Format settings, ReFrames : 9 frames
Codec ID : V_MPEG4/ISO/AVC
Duration : 1h 38mn
Bit rate : 5 850 Kbps
Width : 1 280 pixels
Height : 544 pixels
Display aspect ratio : 2.35:1
Frame rate mode : Constant
Frame rate : 23.976 fps
Color space : YUV
Chroma subsampling : 4:2:0
Bit depth : 8 bits
Scan type : Progressive
Bits/(Pixel*Frame) : 0.350
Stream size : 3.94 GiB (84%)
Writing library : x264 core 129 r2245kMod bc13772
Encoding settings : cabac=1 / ref=9 / deblock=1:-2:-2 / analyse=0x3:0x113 / me=tesa / subme=11 / psy=1 / fade_compensate=0.00 / psy_rd=1.00:0.08 / mixed_ref=1 / me_range=32 / chroma_me=1 / trellis=2 / 8x8dct=1 / cqm=0 / deadzone=21,11 / fast_pskip=0 / chroma_qp_offset=-3 / threads=6 / lookahead_threads=1 / sliced_threads=0 / nr=0 / decimate=1 / interlaced=0 / bluray_compat=0 / constrained_intra=0 / bframes=9 / b_pyramid=2 / b_adapt=2 / b_bias=0 / direct=3 / weightb=1 / open_gop=0 / weightp=2 / keyint=250 / keyint_min=23 / scenecut=40 / intra_refresh=0 / rc=2pass / mbtree=0 / bitrate=5850 / ratetol=1.0 / qcomp=0.75 / qpmin=0 / qpmax=69 / qpstep=4 / cplxblur=20.0 / qblur=0.5 / ip_ratio=1.40 / pb_ratio=1.30 / aq=2:0.70
Language : English
Default : Yes
Forced : No
Matrix coefficients : BT.709
Audio #2
ID : 2
Format : AC-3
Format/Info : Audio Coding 3
Format profile : Dolby Digital
Mode extension : CM (complete main)
Format settings, Endianness : Big
Codec ID : A_AC3
Duration : 1h 38mn
Bit rate mode : Constant
Bit rate : 192 Kbps
Channel(s) : 2 channels
Channel positions : Front: L R
Sampling rate : 48.0 KHz
Bit depth : 16 bits
Compression mode : Lossy
Stream size : 135 MiB (3%)
Title : MVO
Language : Russian
Default : Yes
Forced : No
Audio #3
ID : 3
Format : DTS
Format/Info : Digital Theater Systems
Mode : 16
Format settings, Endianness : Big
Codec ID : A_DTS
Duration : 1h 38mn
Bit rate mode : Constant
Bit rate : 768 Kbps
Channel(s) : 2 channels
Channel positions : Front: L R
Sampling rate : 48.0 KHz
Bit depth : 24 bits
Compression mode : Lossy
Stream size : 542 MiB (11%)
Language : German
Default : No
Forced : No
Menu
00:00:00.000 : en:00:00:00.000
00:08:28.215 : en:00:08:28.215
00:16:32.282 : en:00:16:32.282
00:24:17.914 : en:00:24:17.914
00:33:30.717 : en:00:33:30.717
00:41:18.559 : en:00:41:18.559
00:51:28.585 : en:00:51:28.585
00:57:29.445 : en:00:57:29.445
01:10:38.317 : en:01:10:38.317
01:22:02.751 : en:01:22:02.751
01:31:01.247 : en:01:31:01.247

Скриншоты


_________________
Показать сообщения:    

Текущее время: Сегодня 15:17

Часовой пояс: GMT



Вы не можете начинать темы
Вы не можете отвечать на сообщения
Вы не можете редактировать свои сообщения
Вы не можете удалять свои сообщения
Вы не можете голосовать в опросах
Вы не можете прикреплять файлы к сообщениям
Вы не можете скачивать файлы