Важное объявление!
У Нас Все раздачи мультитрекерные, при нуле пиров в релизах, можете смело вставать на закачку!
 
Автор Сообщение

HUNTER

Стаж:
4 года 4 месяца
Сообщений:
56755

Репутация: 101

[+] [-]
Вне форума [Профиль] [ЛС]

Пирамида желаний / серии 1-16 из 16
-Название: Пирамида желаний
Год выпуска: 2009
Страна: Россия, Израиль
Производство: Ari Films
Источник Web: www.opentv.tv
Жанр: телепередача
Продолжительность: 06:52:24
Перевод: оригинал (русский язык)
Субтитры: нет-В ролях: Лев Новожёнов, Виктория Катамидзе, Эдуард Тополь, Гарри Бардин, Татьяна Черняева, Олег Штефанко, Ирина Бразговка, Саид Багов, Юрий Куклачёв, Александра Маринина, Любовь Казарновская, Исраэль (Александр) Демидов
Режиссёр: Семён Винокур-Описание: Неординарные, творческие личности, интересные собеседники. Их суждения всегда неожиданны и любопытны. Гостям программы «Пирамида желаний» есть чем поделиться со зрителями. И ведущий Лев Корчагин с удовольствием предоставляет им такую возможность. Среди приглашенных: Лев Новожёнов, Виктория Катамидзе, Эдуард Тополь, Гарри Бардин, Татьяна Черняева, Олег Штефанко, Ирина Бразговка, Саид Багов, Юрий Куклачёв, Александра Маринина, Любовь Казарновская, Исраэль (Александр) Демидов и многие другие. Они говорят на самые разные темы.-Качество: WEB-DLRip
Формат: MP4
Видеокодек: MPEG-4 AVC (H.264)
Аудиокодек: ACC
Видео: 720 x 544, 25,000 fps, ~ 500 Kbps, ~ 0.050 bit/pixel
Аудио: 44,1 kHz, 2 ch, 96 kb/s- Аудиоверсия телепередачи «Пирамида желаний» / выпуски 1-16 из 16

Скриншоты

MediaInfo


ОбщееПолное имя : teleprogramma.Piramida_zhelanij.2009.WEB-DLRip.Rus.Mp4\2009-04-14_Пирамида_желаний-Исраэль_(Александр)_Демидов.mp4Формат : MPEG-4Профиль формата : Base MediaИдентификатор кодека : isomРазмер файла : 132 МбайтПродолжительность : 30 м.Режим общего битрейта : ПеременныйОбщий поток : 603 Кбит/сек
ВидеоИдентификатор : 1Формат : AVCФормат/Информация : Advanced Video CodecПрофиль формата : Baseline@L3.0Параметр CABAC формата : НетПараметр ReFrames формата : 1 кадрИдентификатор кодека : avc1Идентификатор кодека/Информация : Advanced Video CodingПродолжительность : 30 м.Битрейт : 500 Кбит/секШирина : 720 пикселейВысота : 544 пикселяСоотношение сторон : 4:3Режим частоты кадров : ПостоянныйЧастота кадров : 25,000 кадров/секЦветовое пространство : YUVСубдискретизация насыщенности : 4:2:0Битовая глубина : 8 битТип развёртки : ПрогрессивнаяБит/(Пиксели*Кадры) : 0.051Размер потока : 110 Мбайт (83%)Библиотека кодирования : x264 core 112
АудиоИдентификатор : 2Формат : AACФормат/Информация : Advanced Audio CodecПрофиль формата : LCИдентификатор кодека : 40Продолжительность : 30 м.Вид битрейта : ПеременныйБитрейт : 96,0 Кбит/секКаналы : 2 каналаРасположение каналов : Front: L RЧастота : 44,1 КГцМетод сжатия : С потерямиРазмер потока : 21,0 Мбайт (16%)

Список серий


01. 2009-04-14_Пирамида_желаний-Исраэль_(Александр)_Демидов - (30:35)
02. 2009-04-19_Пирамида_желаний-Виктория_Катамидзе - (25:44)
03. 2009-05-17_Пирамида_желаний-Любовь_Казарновская - (31:05)
04. 2009-05-26_Пирамида_желаний-Эдуард_Тополь - (25:44)
05. 2009-06-03_Пирамида_желаний-Саид_Багов - (25:44)
06. 2009-06-17_Пирамида_желаний-Александра_Маринина - (25:45)
07. 2009-06-17_Пирамида_желаний-Ксения_Стриж - (25:44)
08. 2009-06-19_Пирамида_желаний-Андрей_Максимов - (25:45)
09. 2009-06-24_Пирамида_желаний-Лев_Новожёнов - (25:45)
10. 2009-07-01_Пирамида_желаний-Гарри_Бардин - (25:45)
11. 2009-07-09_Пирамида_желаний-Олег_Штефанко - (25:45)
12. 2009-07-22_Пирамида_желаний-Татьяна_Черняева - (25:45)
13. 2009-07-28_Пирамида_желаний-Юрий_Куклачёв - (25:34)
14. 2009-08-07_Пирамида_желаний-Роман_Трахтенберг - (16:29)
15. 2009-08-14_Пирамида_желаний-Владимир_Вишневский - (25:34)
16. 2009-09-25_Пирамида_желаний-Ирина_Бразговка - (25:34)

Дополнительная информация

- О нас
Добро пожаловать!
Мы создали «Открытый телеканал» для того, чтобы способствовать позитивным переменам в жизни. Поэтому в наших передачах мы говорим практически о 3 вещах: что представляет собой окружающий нас сегодня мир, что представляем собой мы сами и что нам делать для того, чтобы прийти к гармонии – с самими собой и с сегодняшним глобальным миром.
Надеемся, что не разочаруем. Мы абсолютно убеждены, что позитивные перемены в обществе не произойдут по приказу “сверху”. Они возможны, только если их захочет само общество, то есть мы с вами. Стоит лишь 10% из нас прийти к согласию и оно неизбежно будет принято всем обществом, включая правительство.
Так что, наша судьба находится в наших же руках. Не будем её выпускать.
И ещё. Наш телеканал – некоммерческий проект. Он создан и функционирует исключительно благодаря волонтерам. Всё, что вы видите на нём, создано, как раньше выражались, в свободное от основной работы время.
Ну, и использование материалов сайта на других ресурсах разрешается без ограничения, но с обязательной гиперссылкой на «Открытый телеканал».
Искренне ваши, Общественное движение “Арвут”

_________________
Показать сообщения:    

Текущее время: Сегодня 09:10

Часовой пояс: GMT



Вы не можете начинать темы
Вы не можете отвечать на сообщения
Вы не можете редактировать свои сообщения
Вы не можете удалять свои сообщения
Вы не можете голосовать в опросах
Вы не можете прикреплять файлы к сообщениям
Вы не можете скачивать файлы