Важное объявление!
У Нас Все раздачи мультитрекерные, при нуле пиров в релизах, можете смело вставать на закачку!
 
Автор Сообщение

HUNTER

Стаж:
4 года 4 месяца
Сообщений:
56790

Репутация: 101

[+] [-]
Вне форума [Профиль] [ЛС]

Пиноккио / Pinocchio
Страна: США
Жанр: Мультфильм, семейный, музыкальный
Продолжительность: 01:24:03
Год выпуска: 1940
Перевод: Профессиональный (многоголосый закадровый) Светла
Русские субтитры: нет
Режиссёр: Хэмильтон Ласки / Hamilton Luske, Бен Шарпстин / Ben Sharpsteen
Описание: Голубая фея оживила куклу-марионетку, но чтобы стать настоящим человеком, герою надо в добрых делах проявить свою храбрость и честность. И вот длинноносый непоседа и его совестливый друг сверчок Джимини Крикет отправляются навстречу самым невероятным приключениям.
Они встретят злого кукольника Стромболи, заглянут на обманчивый Остров удовольствий, где непослушных мальчиков превращают в ослов на продажу, и даже побывают в чреве чудовищного кита, проглотившего отца Пиноккио — мастера Джепетто.
Доп. материалы: Отсутствуют
Доп. информация: Издание Светла - http://www.ozon.ru/context/detail/id/1527001/?item=5930236
Семпл: http://multi-up.com/1081876
Качество: DVD5
Формат: DVD-video
Видео: PAL 4:3 (720x576) VBR 6838 kbps
Аудио: Russian - Dolby AC3, 2 ch, 192 kbps
Аудио 2: English - Dolby AC3, 4 ch, 384 kbps
Субтитры: Отсутствуют

DVDInfo

Title: PINACIOSize: 4.36 Gb ( 4 571 136,00 KBytes ) - DVD-5Enabled regions: 1, 2, 3, 4, 5, 6, 7, 8
VTS_01 : Play Length: 01:24:03 Video: PAL 4:3 (720x576) VBR Audio: Russian, AC3, 2/0 (L,R) ch, 192 kbps, Delay 0 mSec English, AC3, 3/1 (L,C,R,SL) ch, 384 kbps, Delay 0 mSec
* Menus Information *
VIDEO_TS MenuVideo: PAL 4:3 (720x576) VBRAudio: Not specified (Dolby AC3, 2 ch)Russian Language Unit : Title Menu
VTS_01 MenuVideo: PAL 4:3 (720x576) VBRAudio: Not specified (Dolby AC3, 2 ch)Russian Language Unit : Root Menu Audio Menu Chapter (PTT) Menu

MediaInfo

Полное имя : E:\WALT DISNEY\DVD\SVETLA\PINACIO\VIDEO_TS\VTS_01_0.VOBФормат : MPEG-PSРазмер файла : 38,7 МбайтПродолжительность : 45 с.Общий поток : 7173 Кбит/сек
ВидеоИдентификатор : 224 (0xE0)Формат : MPEG VideoВерсия формата : Version 2Профиль формата : Main@MainПараметр BVOP формата : ДаПараметр матрицы формата : По умолчаниюПараметр GOP формата : VariableПродолжительность : 45 с.Битрейт : 6838 Кбит/секШирина : 720 пикселейВысота : 576 пикселейСоотношение сторон : 4:3Частота кадров : 25,000 кадров/секСтандарт вещания : PALЦветовое пространство : YUVСубдискретизация насыщенности : 4:2:0Битовая глубина : 8 битМетод сжатия : С потерямиБит/(Пиксели*Кадры) : 0.660Размер потока : 36,9 Мбайт (95%)
АудиоИдентификатор : 189 (0xBD)-128 (0x80)Формат : AC-3Формат/Информация : Audio Coding 3Расширение режима : CM (complete main)Параметр Endianness формата : BigРежим смешивания : DVD-VideoПродолжительность : 45 с.Вид битрейта : ПостоянныйБитрейт : 192 Кбит/секКаналы : 2 каналаРасположение каналов : Front: L RЧастота : 48,0 КГцБитовая глубина : 16 битМетод сжатия : С потерямиРазмер потока : 1,04 Мбайт (3%)
ТекстИдентификатор : 189 (0xBD)-32 (0x20)Формат : RLEФормат/Информация : Run-length encodingРежим смешивания : DVD-Video
Меню
ОбщееПолное имя : E:\WALT DISNEY\DVD\SVETLA\PINACIO\VIDEO_TS\VTS_01_1.VOBФормат : MPEG-PSРазмер файла : 1024 МбайтПродолжительность : 20 м.Режим общего битрейта : ПеременныйОбщий поток : 6875 Кбит/сек
ВидеоИдентификатор : 224 (0xE0)Формат : MPEG VideoВерсия формата : Version 2Профиль формата : Main@MainПараметр BVOP формата : ДаПараметр матрицы формата : ВыборочнаяПараметр GOP формата : VariableFormat_Settings_PictureStructure : FrameПродолжительность : 20 м.Вид битрейта : ПеременныйБитрейт : 6162 Кбит/секМаксимальный битрейт : 8000 Кбит/секШирина : 720 пикселейВысота : 576 пикселейСоотношение сторон : 4:3Частота кадров : 25,000 кадров/секСтандарт вещания : PALЦветовое пространство : YUVСубдискретизация насыщенности : 4:2:0Битовая глубина : 8 битТип развёртки : ЧересстрочнаяПорядок развёртки : Верхнее поле первоеМетод сжатия : С потерямиБит/(Пиксели*Кадры) : 0.594Временной код первого кадра : 00:00:00:00Оригинал временного кода : Group of pictures headerРазмер потока : 918 Мбайт (90%)Основные цвета : BT.601 PALХарактеристики трансфера : BT.470 System B, BT.470 System GКоэффициенты матрицы : FCC 73.682
Аудио #1Идентификатор : 189 (0xBD)-128 (0x80)Формат : AC-3Формат/Информация : Audio Coding 3Расширение режима : CM (complete main)Параметр Endianness формата : BigРежим смешивания : DVD-VideoПродолжительность : 20 м.Вид битрейта : ПостоянныйБитрейт : 192 Кбит/секКаналы : 2 каналаРасположение каналов : Front: L RЧастота : 48,0 КГцБитовая глубина : 16 битМетод сжатия : С потерямиРазмер потока : 28,6 Мбайт (3%)
Аудио #2Идентификатор : 189 (0xBD)-129 (0x81)Формат : AC-3Формат/Информация : Audio Coding 3Расширение режима : CM (complete main)Параметр Endianness формата : BigРежим смешивания : DVD-VideoПродолжительность : 20 м.Вид битрейта : ПостоянныйБитрейт : 384 Кбит/секКаналы : 4 каналаРасположение каналов : Front: L C R, Back: CЧастота : 48,0 КГцБитовая глубина : 16 битМетод сжатия : С потерямиРазмер потока : 57,2 Мбайт (6%)
Меню
ОбщееПолное имя : E:\WALT DISNEY\DVD\SVETLA\PINACIO\VIDEO_TS\VTS_01_2.VOBФормат : MPEG-PSРазмер файла : 1024 МбайтПродолжительность : 18 м.Режим общего битрейта : ПеременныйОбщий поток : 7700 Кбит/сек
ВидеоИдентификатор : 224 (0xE0)Формат : MPEG VideoВерсия формата : Version 2Профиль формата : Main@MainПараметр BVOP формата : ДаПараметр матрицы формата : ВыборочнаяПараметр GOP формата : M=3, N=13Format_Settings_PictureStructure : FrameПродолжительность : 18 м.Вид битрейта : ПеременныйБитрейт : 6971 Кбит/секМаксимальный битрейт : 8000 Кбит/секШирина : 720 пикселейВысота : 576 пикселейСоотношение сторон : 4:3Частота кадров : 25,000 кадров/секСтандарт вещания : PALЦветовое пространство : YUVСубдискретизация насыщенности : 4:2:0Битовая глубина : 8 битТип развёртки : ЧересстрочнаяПорядок развёртки : Верхнее поле первоеМетод сжатия : С потерямиБит/(Пиксели*Кадры) : 0.672Временной код первого кадра : 00:20:49:19Оригинал временного кода : Group of pictures headerРазмер потока : 927 Мбайт (90%)Основные цвета : BT.601 PALХарактеристики трансфера : BT.470 System B, BT.470 System GКоэффициенты матрицы : FCC 73.682
Аудио #1Идентификатор : 189 (0xBD)-128 (0x80)Формат : AC-3Формат/Информация : Audio Coding 3Расширение режима : CM (complete main)Параметр Endianness формата : BigРежим смешивания : DVD-VideoПродолжительность : 18 м.Вид битрейта : ПостоянныйБитрейт : 192 Кбит/секКаналы : 2 каналаРасположение каналов : Front: L RЧастота : 48,0 КГцБитовая глубина : 16 битМетод сжатия : С потерямиЗадержка видео : -544 мс.Размер потока : 25,5 Мбайт (2%)
Аудио #2Идентификатор : 189 (0xBD)-129 (0x81)Формат : AC-3Формат/Информация : Audio Coding 3Расширение режима : CM (complete main)Параметр Endianness формата : BigРежим смешивания : DVD-VideoПродолжительность : 18 м.Вид битрейта : ПостоянныйБитрейт : 384 Кбит/секКаналы : 4 каналаРасположение каналов : Front: L C R, Back: CЧастота : 48,0 КГцБитовая глубина : 16 битМетод сжатия : С потерямиЗадержка видео : -640 мс.Размер потока : 51,1 Мбайт (5%)
Меню
ОбщееПолное имя : E:\WALT DISNEY\DVD\SVETLA\PINACIO\VIDEO_TS\VTS_01_3.VOBФормат : MPEG-PSРазмер файла : 1024 МбайтПродолжительность : 19 м.Режим общего битрейта : ПеременныйОбщий поток : 7452 Кбит/сек
ВидеоИдентификатор : 224 (0xE0)Формат : MPEG VideoВерсия формата : Version 2Профиль формата : Main@MainПараметр BVOP формата : ДаПараметр матрицы формата : ВыборочнаяПараметр GOP формата : M=3, N=13Format_Settings_PictureStructure : FrameПродолжительность : 19 м.Вид битрейта : ПеременныйБитрейт : 6728 Кбит/секМаксимальный битрейт : 8000 Кбит/секШирина : 720 пикселейВысота : 576 пикселейСоотношение сторон : 4:3Частота кадров : 25,000 кадров/секСтандарт вещания : PALЦветовое пространство : YUVСубдискретизация насыщенности : 4:2:0Битовая глубина : 8 битТип развёртки : ЧересстрочнаяПорядок развёртки : Верхнее поле первоеМетод сжатия : С потерямиБит/(Пиксели*Кадры) : 0.649Временной код первого кадра : 00:39:25:09Оригинал временного кода : Group of pictures headerРазмер потока : 924 Мбайт (90%)Основные цвета : BT.601 PALХарактеристики трансфера : BT.470 System B, BT.470 System GКоэффициенты матрицы : FCC 73.682
Аудио #1Идентификатор : 189 (0xBD)-128 (0x80)Формат : AC-3Формат/Информация : Audio Coding 3Расширение режима : CM (complete main)Параметр Endianness формата : BigРежим смешивания : DVD-VideoПродолжительность : 19 м.Вид битрейта : ПостоянныйБитрейт : 192 Кбит/секКаналы : 2 каналаРасположение каналов : Front: L RЧастота : 48,0 КГцБитовая глубина : 16 битМетод сжатия : С потерямиЗадержка видео : -624 мс.Размер потока : 26,4 Мбайт (3%)
Аудио #2Идентификатор : 189 (0xBD)-129 (0x81)Формат : AC-3Формат/Информация : Audio Coding 3Расширение режима : CM (complete main)Параметр Endianness формата : BigРежим смешивания : DVD-VideoПродолжительность : 19 м.Вид битрейта : ПостоянныйБитрейт : 384 Кбит/секКаналы : 4 каналаРасположение каналов : Front: L C R, Back: CЧастота : 48,0 КГцБитовая глубина : 16 битМетод сжатия : С потерямиЗадержка видео : -688 мс.Размер потока : 52,8 Мбайт (5%)
Меню
ОбщееПолное имя : E:\WALT DISNEY\DVD\SVETLA\PINACIO\VIDEO_TS\VTS_01_4.VOBФормат : MPEG-PSРазмер файла : 1024 МбайтПродолжительность : 19 м.Режим общего битрейта : ПеременныйОбщий поток : 7348 Кбит/сек
ВидеоИдентификатор : 224 (0xE0)Формат : MPEG VideoВерсия формата : Version 2Профиль формата : Main@MainПараметр BVOP формата : ДаПараметр матрицы формата : ВыборочнаяПараметр GOP формата : M=3, N=13Format_Settings_PictureStructure : FrameПродолжительность : 19 м.Вид битрейта : ПеременныйБитрейт : 6626 Кбит/секМаксимальный битрейт : 8000 Кбит/секШирина : 720 пикселейВысота : 576 пикселейСоотношение сторон : 4:3Частота кадров : 25,000 кадров/секСтандарт вещания : PALЦветовое пространство : YUVСубдискретизация насыщенности : 4:2:0Битовая глубина : 8 битТип развёртки : ЧересстрочнаяПорядок развёртки : Верхнее поле первоеМетод сжатия : С потерямиБит/(Пиксели*Кадры) : 0.639Временной код первого кадра : 00:58:38:03Оригинал временного кода : Group of pictures headerРазмер потока : 923 Мбайт (90%)Основные цвета : BT.601 PALХарактеристики трансфера : BT.470 System B, BT.470 System GКоэффициенты матрицы : FCC 73.682
Аудио #1Идентификатор : 189 (0xBD)-128 (0x80)Формат : AC-3Формат/Информация : Audio Coding 3Расширение режима : CM (complete main)Параметр Endianness формата : BigРежим смешивания : DVD-VideoПродолжительность : 19 м.Вид битрейта : ПостоянныйБитрейт : 192 Кбит/секКаналы : 2 каналаРасположение каналов : Front: L RЧастота : 48,0 КГцБитовая глубина : 16 битМетод сжатия : С потерямиЗадержка видео : -648 мс.Размер потока : 26,8 Мбайт (3%)
Аудио #2Идентификатор : 189 (0xBD)-129 (0x81)Формат : AC-3Формат/Информация : Audio Coding 3Расширение режима : CM (complete main)Параметр Endianness формата : BigРежим смешивания : DVD-VideoПродолжительность : 19 м.Вид битрейта : ПостоянныйБитрейт : 384 Кбит/секКаналы : 4 каналаРасположение каналов : Front: L C R, Back: CЧастота : 48,0 КГцБитовая глубина : 16 битМетод сжатия : С потерямиЗадержка видео : -712 мс.Размер потока : 53,5 Мбайт (5%)
Меню
ОбщееПолное имя : E:\WALT DISNEY\DVD\SVETLA\PINACIO\VIDEO_TS\VTS_01_5.VOBФормат : MPEG-PSРазмер файла : 306 МбайтПродолжительность : 5 м. 57 с.Режим общего битрейта : ПеременныйОбщий поток : 7184 Кбит/сек
ВидеоИдентификатор : 224 (0xE0)Формат : MPEG VideoВерсия формата : Version 2Профиль формата : Main@MainПараметр BVOP формата : ДаПараметр матрицы формата : ВыборочнаяПараметр GOP формата : M=3, N=13Format_Settings_PictureStructure : FrameПродолжительность : 5 м. 57 с.Вид битрейта : ПеременныйБитрейт : 6465 Кбит/секМаксимальный битрейт : 8000 Кбит/секШирина : 720 пикселейВысота : 576 пикселейСоотношение сторон : 4:3Частота кадров : 25,000 кадров/секСтандарт вещания : PALЦветовое пространство : YUVСубдискретизация насыщенности : 4:2:0Битовая глубина : 8 битТип развёртки : ЧересстрочнаяПорядок развёртки : Верхнее поле первоеМетод сжатия : С потерямиБит/(Пиксели*Кадры) : 0.624Временной код первого кадра : 01:18:06:22Оригинал временного кода : Group of pictures headerРазмер потока : 275 Мбайт (90%)Основные цвета : BT.601 PALХарактеристики трансфера : BT.470 System B, BT.470 System GКоэффициенты матрицы : FCC 73.682
Аудио #1Идентификатор : 189 (0xBD)-128 (0x80)Формат : AC-3Формат/Информация : Audio Coding 3Расширение режима : CM (complete main)Параметр Endianness формата : BigРежим смешивания : DVD-VideoПродолжительность : 5 м. 57 с.Вид битрейта : ПостоянныйБитрейт : 192 Кбит/секКаналы : 2 каналаРасположение каналов : Front: L RЧастота : 48,0 КГцБитовая глубина : 16 битМетод сжатия : С потерямиЗадержка видео : -320 мс.Размер потока : 8,18 Мбайт (3%)
Аудио #2Идентификатор : 189 (0xBD)-129 (0x81)Формат : AC-3Формат/Информация : Audio Coding 3Расширение режима : CM (complete main)Параметр Endianness формата : BigРежим смешивания : DVD-VideoПродолжительность : 5 м. 57 с.Вид битрейта : ПостоянныйБитрейт : 384 Кбит/секКаналы : 4 каналаРасположение каналов : Front: L C R, Back: CЧастота : 48,0 КГцБитовая глубина : 16 битМетод сжатия : С потерямиЗадержка видео : -384 мс.Размер потока : 16,4 Мбайт (5%)

Скриншоты меню


_________________
Показать сообщения:    

Текущее время: Сегодня 17:13

Часовой пояс: GMT



Вы не можете начинать темы
Вы не можете отвечать на сообщения
Вы не можете редактировать свои сообщения
Вы не можете удалять свои сообщения
Вы не можете голосовать в опросах
Вы не можете прикреплять файлы к сообщениям
Вы не можете скачивать файлы