Важное объявление!
У Нас Все раздачи мультитрекерные, при нуле пиров в релизах, можете смело вставать на закачку!
 
Автор Сообщение

HUNTER

Стаж:
4 года 4 месяца
Сообщений:
56848

Репутация: 101

[+] [-]
Вне форума [Профиль] [ЛС]

Пингвины Мадагаскара / The Penguins of Madagascar
Страна: США
Жанр: мультфильм, комедия, приключения, семейный
Продолжительность: 01:32:25
Год выпуска: 2014
Перевод: Профессиональный (дублированный) (iTunes)
Русские субтитры: нет
Режиссёр: Эрик Дарнелл / Eric Darnell , Саймон Дж. Смит / Simon J. Smith
Роли озвучивали: Анатолий Дубанов, Андрей Шамин, Иван Паршин, Максим Матвеев, Александр Трофимов
Описание: Сверхсекретные операции, железная дисциплина и выдержка, а главное, феноменальная находчивость — вот критерии успешной миссии, даже если она кажется невыполнимой.
Семпл: http://multi-up.com/1028131
Качество: WEB-DLRip
Формат: AVI
Видео: Xvid 720x384 23.98fps 1 725 Kbps
Аудио: Dolby AC3 48000Hz 6ch 384kbps
Субтитры: нет

Подробные технические данные

Format : AVIFormat/Info : Audio Video InterleaveFile size : 1.37 GiBDuration : 1h 32mnOverall bit rate : 2 116 KbpsWriting application : VirtualDubMod 1.5.10.3 | www.virtualdub-fr.org || (build 2550/release)Writing library : VirtualDubMod build 2550/release
VideoID : 0Format : MPEG-4 VisualFormat profile : Advanced Simple@L5Format settings, BVOP : YesFormat settings, QPel : NoFormat settings, GMC : No warppointsFormat settings, Matrix : Default (MPEG)Codec ID : XVIDCodec ID/Hint : XviDDuration : 1h 32mnBit rate : 1 725 KbpsWidth : 720 pixelsHeight : 384 pixelsDisplay aspect ratio : 1.875Frame rate : 23.976 fpsResolution : 8 bitsColorimetry : 4:2:0Scan type : ProgressiveBits/(Pixel*Frame) : 0.260Stream size : 1.11 GiB (82%)Writing library : XviD 1.2.1 (UTC 2008-12-04)
AudioID : 1Format : AC-3Format/Info : Audio Coding 3Codec ID : 2000Duration : 1h 31mnBit rate mode : ConstantBit rate : 384 KbpsChannel(s) : 6 channelsChannel positions : Front: L C R, Surround: L R, LFESampling rate : 48.0 KHzStream size : 252 MiB (18%)Alignment : Split accross interleavesInterleave, duration : 42 ms (1.01 video frame)Interleave, preload duration : 500 ms

Скриншоты


_________________
Показать сообщения:    

Текущее время: Сегодня 06:53

Часовой пояс: GMT



Вы не можете начинать темы
Вы не можете отвечать на сообщения
Вы не можете редактировать свои сообщения
Вы не можете удалять свои сообщения
Вы не можете голосовать в опросах
Вы не можете прикреплять файлы к сообщениям
Вы не можете скачивать файлы
Наши партнеры: интернет магазин Ивановского трикотажа textilla.ru