Важное объявление!
У Нас Все раздачи мультитрекерные, при нуле пиров в релизах, можете смело вставать на закачку!
 
Автор Сообщение

HUNTER

Стаж:
4 года 4 месяца
Сообщений:
56755

Репутация: 101

[+] [-]
Вне форума [Профиль] [ЛС]

Пингвины Мадагаскара / Penguins of Madagascar
[Локализованный видеоряд]
-Страна: США
Жанр: комедия, приключения, семейный
Продолжительность: 01:27:46
Год выпуска: 2014
Перевод: Профессиональный (дублированный)
Русские субтитры: нет-Режиссёры: Эрик Дарнелл / Eric Darnell, Саймон Дж. Смит / Simon J. Smith
Роли дублировали: Анатолий Дубанов, Андрей Шамин, Иван Паршин, Максим Матвеев, Александр Трофимов...- | Релиз: -Описание: Четвёрка пингвинов-шпионов — Шкипер, Ковальски, Рико и Прапор — объединяется с командой «Северный ветер», помогающей беззащитным животным. Им предстоит остановить злобного осьминога, доктора Октавиуса Брайна, желающего уничтожить этот мир…-Семпл: http://sendfile.su/1191307-Качество: HDTV 1080i
Формат: TS
Видео: 1920x1080 (16:9), 25.000 fps, AVC, ~8076 kbps, 0.156 bits/pixel
Аудио: Русский, 48.0 KHz, AC3, 6 ch, 384 kbps
Субтитры: отсутствуют

MediaInfo

GeneralID : 1 (0x1)Complete name : Penguins of Madagascar 2014 TV1000PremiumHD Rus Video.tsFormat : MPEG-TSFile size : 5.46 GiBDuration : 1h 27mnOverall bit rate mode : VariableOverall bit rate : 8 904 KbpsMaximum Overall bit rate : 35.5 Mbps
VideoID : 4113 (0x1011)Menu ID : 1 (0x1)Format : AVCFormat/Info : Advanced Video CodecFormat profile : Main@L4Format settings, CABAC : YesFormat settings, ReFrames : 4 framesCodec ID : 27Duration : 1h 27mnBit rate : 8 076 KbpsWidth : 1 920 pixelsHeight : 1 080 pixelsDisplay aspect ratio : 16:9Frame rate : 25.000 fpsStandard : ComponentColor space : YUVChroma subsampling : 4:2:0Bit depth : 8 bitsScan type : InterlacedScan type, store method : Separated fieldsScan order : Top Field FirstBits/(Pixel*Frame) : 0.156Stream size : 4.95 GiB (91%)Color range : LimitedColor primaries : BT.709Transfer characteristics : BT.709Matrix coefficients : BT.709
AudioID : 4352 (0x1100)Menu ID : 1 (0x1)Format : AC-3Format/Info : Audio Coding 3Mode extension : CM (complete main)Format settings, Endianness : BigCodec ID : 129Duration : 1h 27mnBit rate mode : ConstantBit rate : 384 KbpsChannel(s) : 6 channelsChannel positions : Front: L C R, Side: L R, LFESampling rate : 48.0 KHzFrame rate : 31.250 fps (1536 spf)Compression mode : LossyStream size : 241 MiB (4%)Language : Russian

_________________
Показать сообщения:    

Текущее время: Сегодня 13:06

Часовой пояс: GMT



Вы не можете начинать темы
Вы не можете отвечать на сообщения
Вы не можете редактировать свои сообщения
Вы не можете удалять свои сообщения
Вы не можете голосовать в опросах
Вы не можете прикреплять файлы к сообщениям
Вы не можете скачивать файлы