Важное объявление!
У Нас Все раздачи мультитрекерные, при нуле пиров в релизах, можете смело вставать на закачку!
 
Автор Сообщение

HUNTER

Стаж:
4 года 4 месяца
Сообщений:
56734

Репутация: 101

[+] [-]
Вне форума [Профиль] [ЛС]

Пингвиненок Пороро: Большие гонки / Pororo, the Racing Adventure-Страна: Южная Корея, Китай
Жанр: мультфильм
Продолжительность: 01:13:40
Год выпуска: 2013
Перевод: Профессиональный (дублированный)
Русские субтитры: нет-Режиссёр: Юн Кун Пак / Young Kyun Park- | Релиз: -Описание: В глухой деревушке живет пингвиненок Пороро, мечтающий вырасти и стать настоящим гонщиком. Однажды в их краях совершает вынужденную посадку грузовой самолет с черепахами, перевозящими сани для зимних гонок. Ошибочно решив, что черепахи и есть те самые гонщики, пингвиненок уговаривает их дать ему несколько уроков гоночного мастерства, а затем отправляется на соревнование. Но прибыв на место, он понимает, что выиграть будет не так просто, ведь в соперниках у него многократный чемпион по гонкам Белый Тигр и нечистые на лапу медведи, вечно чинящие разные козни соперникам.-Семпл: http://sendfile.su/1189753-Качество: HDTV 1080i
Формат: MKV
Видео: 1920x1080i (16:9), 25.000 fps, AVC, ~7362 kbps, 0.142 bits/pixel
Аудио: Русский, 48.0 KHz, AC3, 6 ch, 448 kbps
Субтитры: отсутствуют

MediaInfo

GeneralID : 1 (0x1)Complete name : Pororo. The Racing Adventure 2013 NTV+ HD-Kino Dub.tsFormat : MPEG-TSFile size : 4.23 GiBDuration : 1h 13mnOverall bit rate mode : VariableOverall bit rate : 8 221 Kbps
VideoID : 321 (0x141)Menu ID : 1 (0x1)Format : AVCFormat/Info : Advanced Video CodecFormat profile : Main@L4Format settings, CABAC : YesFormat settings, ReFrames : 4 framesCodec ID : 27Duration : 1h 13mnBit rate : 7 362 KbpsWidth : 1 920 pixelsHeight : 1 080 pixelsDisplay aspect ratio : 16:9Frame rate : 25.000 fpsStandard : ComponentColor space : YUVChroma subsampling : 4:2:0Bit depth : 8 bitsScan type : InterlacedScan type, store method : Separated fieldsScan order : Top Field FirstBits/(Pixel*Frame) : 0.142Stream size : 3.79 GiB (90%)Color range : LimitedColor primaries : BT.709Transfer characteristics : BT.709Matrix coefficients : BT.709
AudioID : 421 (0x1A5)Menu ID : 1 (0x1)Format : AC-3Format/Info : Audio Coding 3Mode extension : CM (complete main)Format settings, Endianness : BigCodec ID : 6Duration : 1h 13mnBit rate mode : ConstantBit rate : 448 KbpsChannel(s) : 6 channelsChannel positions : Front: L C R, Side: L R, LFESampling rate : 48.0 KHzFrame rate : 31.250 fps (1536 spf)Compression mode : LossyStream size : 236 MiB (5%)Language : Russian

Скриншоты


_________________
Показать сообщения:    

Текущее время: Сегодня 11:28

Часовой пояс: GMT



Вы не можете начинать темы
Вы не можете отвечать на сообщения
Вы не можете редактировать свои сообщения
Вы не можете удалять свои сообщения
Вы не можете голосовать в опросах
Вы не можете прикреплять файлы к сообщениям
Вы не можете скачивать файлы