Важное объявление!
У Нас Все раздачи мультитрекерные, при нуле пиров в релизах, можете смело вставать на закачку!
 
Автор Сообщение

ForZe

Стаж:
4 года 4 месяца
Сообщений:
182

Репутация: 30

[+] [-]
Вне форума [Профиль] [ЛС]

Пилот международных авиалиний
Год выпуска: 2011
Производство: Пирамида
Жанр: Криминал, Мелодрама
Продолжительность: 00:43:19
Субтитры: нет
Режиссёр: Армен Арутюнян-Елецкий
В ролях: Александр Домогаров, Кирилл Сафонов, Дмитрий Нагиев, Ирина Темичева, Дмитрий Комов, Татьяна Космачева, Татьяна Черкасова (Мещеркина), Натали Старынкевич, Людмила Полякова, Артур Ваха, Юрий Кузьменков, Дмитрий Лактионов, Карина Разумовская, Ирина Салтыкова, Константин Тополага, Максим Пинскер, Вадим Андреев, Михаил Богдасаров, Андрей Руденский, Анна Бояджи, Анна Иванова, Дмитрий Блохин, Ксения Суркова, Иннокентий Тарабара
Описание: Друзья Степанов и Мечников - пилоты гражданской авиации - из-за нештатной ситуации во время полета сажают лайнер прямо на трассу. На время расследования аварии пилотов отстраняют от работы, и Мечников отправляется на поиски затонувшего под Чернолесском фашистского самолета, на борту которого должен быть изумрудный ларец императрицы Анны Иоанновны. А Александр Степанов начинает собственное расследование гибели супруги. В расследовании ему помогает врач Емельян Стрешнёв.

Качество: SATRip
Формат: AVI
Видео кодек: XviD
Аудио кодек: MP3
Видео: 704x384 (1.83:1), 25 fps, XviD build 50 ~1401 kbps avg, 0.21 bit/pixel
Аудио: 48 kHz, MPEG Layer 3, 2 ch, ~128.00 kbps avg

MI

General
Complete name : I:\Закачки\Пилот международных авиалиний\Pilot.Mezhdunarodnyh.Avialinyi.01.avi
Format : AVI
Format/Info : Audio Video Interleave
File size : 477 MiB
Duration : 43mn 19s
Overall bit rate : 1 539 Kbps
Writing library : VirtualDub build 32842/release
Video
Format : MPEG-4 Visual
Format profile : Streaming Video@L1
Format settings, BVOP : Yes
Format settings, QPel : No
Format settings, GMC : No warppoints
Format settings, Matrix : Default (MPEG)
Codec ID : XVID
Codec ID/Hint : XviD
Duration : 43mn 19s
Bit rate : 1 402 Kbps
Width : 704 pixels
Height : 384 pixels
Display aspect ratio : 16/9
Frame rate : 25.000 fps
Resolution : 24 bits
Colorimetry : 4:2:0
Scan type : Progressive
Bits/(Pixel*Frame) : 0.207
Stream size : 434 MiB (91%)
Writing library : XviD 1.2.1 (UTC 2008-12-04)
Audio
Format : MPEG Audio
Format version : Version 1
Format profile : Layer 3
Codec ID : 55
Codec ID/Hint : MP3
Duration : 43mn 19s
Bit rate mode : Constant
Bit rate : 128 Kbps
Channel(s) : 2 channels
Sampling rate : 48.0 KHz
Resolution : 16 bits
Stream size : 39.7 MiB (8%)
Alignment : Split accross interleaves
Interleave, duration : 40 ms (1.00 video frame)
Interleave, preload duration : 500 ms

Скриншоты


_________________
Отдам инвайты на Dota 2! Если кому нужны пишите в лс
Показать сообщения:    

Текущее время: Сегодня 13:05

Часовой пояс: GMT



Вы не можете начинать темы
Вы не можете отвечать на сообщения
Вы не можете редактировать свои сообщения
Вы не можете удалять свои сообщения
Вы не можете голосовать в опросах
Вы не можете прикреплять файлы к сообщениям
Вы не можете скачивать файлы