Важное объявление!
У Нас Все раздачи мультитрекерные, при нуле пиров в релизах, можете смело вставать на закачку!
 
Автор Сообщение

HUNTER

Стаж:
4 года 4 месяца
Сообщений:
56749

Репутация: 101

[+] [-]
Вне форума [Профиль] [ЛС]


Пилатес. Фитнес коллекция-Год выпуска: 2009
Страна: Россия
Жанр: Фитнес
Продолжительность: 00:56:00
Язык: Русский
Перевод: Не требуется-Описание: Пилатес – это тренировка, направленная на укрепление позвоночника и глубоких мышц тела. Регулярные занятия пилатесом улучшают гибкость, силу и тонус тела. Избавляют от болей в пояснице и сутулости. Пилатес доступен и безопасен практически для всех. Он похож на лечебную физкультуру и подходит даже тем, у кого были травмы спины. Обретите красивую осанку, подтянутые мышцы и много энергии.-Качество: DVDRip
Формат: avi
Видео кодек: XviD
Аудио кодек: MP3
Видео: 720x408 (1.76:1), 25 fps, 441 kbps avg, 0.06 bit/pixel
Аудио: 48 kHz, 2 ch, 128.00 kbps avg-

MediaInfo

Код: copyText_writeLink('this.parentNode.parentNode.nextSibling.nextSibling'); Общее
Полное имя : F:\Мои роздачи\Новая папка\обучающее\Пилатес. Фитнес коллекция.avi
Формат : AVI
Формат/Информация : Audio Video Interleave
Размер файла : 232 Мбайт
Продолжительность : 55 м.
Общий поток : 579 Кбит/сек
Программа кодирования : VirtualDubMod 1.5.10.2 (build 2540/release)
Библиотека кодирования : VirtualDubMod build 2540/release
Видео
Идентификатор : 0
Формат : MPEG-4 Visual
Профиль формата : Advanced Simple@L5
Параметр BVOP формата : 3
Параметр QPel формата : Да
Параметр GMC формата : 3 точки перехода
Параметр матрицы формата : Default (H.263)
Режим смешивания : Сжатый битовый поток
Идентификатор кодека : XVID
Идентификатор кодека/Подсказка : XviD
Продолжительность : 55 м.
Битрейт : 442 Кбит/сек
Ширина : 720 пикселей
Высота : 408 пикселей
Соотношение сторон : 16:9
Частота кадров : 25,000 кадров/сек
Цветовое пространство : YUV
Субдискретизация насыщенности : 4:2:0
Битовая глубина : 8 бит
Тип развёртки : Прогрессивная
Метод сжатия : С потерями
Бит/(Пиксели*Кадры) : 0.060
Размер потока : 177 Мбайт (76%)
Библиотека кодирования : XviD 1.2.1 (UTC 2008-12-04)
Аудио
Идентификатор : 1
Формат : MPEG Audio
Версия формата : Version 1
Профиль формата : Layer 3
Идентификатор кодека : 55
Идентификатор кодека/Подсказка : MP3
Продолжительность : 55 м.
Вид битрейта : Постоянный
Битрейт : 128 Кбит/сек
Каналы : 2 канала
Частота : 48,0 КГц
Метод сжатия : С потерями
Размер потока : 51,3 Мбайт (22%)
Выравнивание : Соединение по промежуткам
Продолжительность промежутка : 40 мс. (1,00 видеокадр)
Время предзагрузки промежутка : 504 мс.
Библиотека кодирования : LAME3.98r
Настройки программы : -m s -V 4 -q 2 -lowpass 17 -b 128

Скриншоты


_________________
Показать сообщения:    

Текущее время: Сегодня 02:41

Часовой пояс: GMT



Вы не можете начинать темы
Вы не можете отвечать на сообщения
Вы не можете редактировать свои сообщения
Вы не можете удалять свои сообщения
Вы не можете голосовать в опросах
Вы не можете прикреплять файлы к сообщениям
Вы не можете скачивать файлы