Важное объявление!
У Нас Все раздачи мультитрекерные, при нуле пиров в релизах, можете смело вставать на закачку!
 
Автор Сообщение

димитри37

Стаж:
3 года 9 месяцев
Сообщений:
1237

Репутация: 127

[+] [-]
Вне форума [Профиль] [ЛС]

Печки-лавочки
Жанр: комедия
Год выпуска: 1972
Продолжительность: 01:35:54
Режиссёр: Василий Шукшин
В ролях:
Василий Шукшин - Иван Сергеевич Расторгуев
Лидия Федосеева - Шукшина - Нюра Расторгуева
Всеволод Санаев - Степанов Сергей Федорович, профессор-языковед из Москвы
Георгий Бурков - Виктор Александрович, вор по кличке «Конструктор»
Зиновий Гердт - друг профессора
Иван Рыжов - проводник поезда
Станислав Любшин - сын профессора
Вадим Захарченко - сосед по купе, командировочный
Елизавета Уварова - жена Степанова
Любовь Мышева - Люда, невестка профессора
Любовь Соколова - проводница поезда
Виктор Филиппов - сержант милиции
Алексей Локтев - следователь прокуратуры
Юрий Филимонов - главный врач санатория
Леонид Енгибаров - клоун, гость профессора
Вадим Спиридонов - Васька Чулков, односельчанин Расторгуевых, муж Ксении
Людмила Зайцева - Людмила, сестра Ивана Расторгуева
Описание: Экранизация одноименного рассказа В.М.Шукшина. Ироничная и грустная киноповесть о деревенской супружеской чете, которая из глухой алтайской деревни впервые в жизни едет в отпуск на юг. Дорожные приключения, ритм жизни увлекают их, но среди красот южной природы не могут они забыть родных мест.

Качество видео: DVDRip-AVC
Формат видео: MKV
Видео: x264 (High@L4.1); Анаморф 712@1008x428 25.000 fps; Display aspect ratio: 2.35:1; 1727 Kbps
Аудио: Оригинал AC-3; 16 bits 48 Khz; 6ch 448 Kbps; CBR

Скриншоты





MediaInfo

General
Unique ID : 200377165023571284397455238566444376532 (0x96BF3CFC93ECCE9FAAB8BAE2338DA1D4)
Complete name : Печки-лавочки.1972.mkv
Format : Matroska
Format version : Version 2
File size : 1.46 GiB
Duration : 1h 35mn
Overall bit rate : 2 177 Kbps
Encoded date : UTC 2012-06-01 12:41:07
Writing application : mkvmerge v5.0.1 ('Es ist Sommer') built on Oct 24 2011 19:45:06
Writing library : libebml v1.2.2 + libmatroska v1.3.0
Video
ID : 1
Format : AVC
Format/Info : Advanced Video Codec
Format profile : High@L4.1
Format settings, CABAC : Yes
Format settings, ReFrames : 16 frames
Codec ID : V_MPEG4/ISO/AVC
Duration : 1h 35mn
Bit rate : 1 727 Kbps
Width : 712 pixels
Height : 428 pixels
Display aspect ratio : 2.35:1
Frame rate : 25.000 fps
Color space : YUV
Chroma subsampling : 4:2:0
Bit depth : 8 bits
Scan type : Progressive
Bits/(Pixel*Frame) : 0.227
Stream size : 1.13 GiB (77%)
Title : Печки-лавочки.1972
Writing library : x264 core 124 r2197 69a0443
Encoding settings : cabac=1 / ref=16 / deblock=1:-2:-2 / analyse=0x3:0x133 / me=umh / subme=10 / psy=1 / psy_rd=1.05:0.10 / mixed_ref=1 / me_range=48 / chroma_me=1 / trellis=2 / 8x8dct=1 / cqm=0 / deadzone=21,11 / fast_pskip=0 / chroma_qp_offset=-3 / threads=6 / sliced_threads=0 / nr=0 / decimate=0 / interlaced=0 / bluray_compat=0 / constrained_intra=0 / bframes=9 / b_pyramid=2 / b_adapt=2 / b_bias=0 / direct=3 / weightb=1 / open_gop=0 / weightp=2 / keyint=250 / keyint_min=25 / scenecut=40 / intra_refresh=0 / rc_lookahead=40 / rc=2pass / mbtree=0 / bitrate=1727 / ratetol=1.0 / qcomp=0.65 / qpmin=0 / qpmax=69 / qpstep=4 / cplxblur=20.0 / qblur=0.5 / vbv_maxrate=50000 / vbv_bufsize=62500 / nal_hrd=none / ip_ratio=1.40 / pb_ratio=1.30 / aq=1:1.00
Language : Russian
Default : Yes
Forced : No
Color primaries : BT.470-6 System B, BT.470-6 System G, BT.601-6 625, BT.1358 625, BT.1700 625 PAL, BT.1700 625 SECAM
Transfer characteristics : BT.470-6 System B, BT.470-6 System G
Matrix coefficients : BT.470-6 System B, BT.470-6 System G, BT.601-6 625, BT.1358 625, BT.1700 625 PAL, BT.1700 625 SECAM, IEC 61966-2-4 601
Audio
ID : 2
Format : AC-3
Format/Info : Audio Coding 3
Mode extension : CM (complete main)
Codec ID : A_AC3
Duration : 1h 35mn
Bit rate mode : Constant
Bit rate : 448 Kbps
Channel(s) : 6 channels
Channel positions : Front: L C R, Side: L R, LFE
Sampling rate : 48.0 KHz
Bit depth : 16 bits
Compression mode : Lossy
Stream size : 307 MiB (21%)
Title : Оригинал AC-3; 16 bits 48 Khz; 6ch 448 Kbps; CBR
Language : Russian
Default : Yes
Forced : No

x264 log

...last pass...
x264.exe: --pass 2 --bitrate 1727 --preset medium --ref 16 --deblock -2:-2 --merange 48 --bframes 9 --direct auto --b-adapt 2 --trellis 2 --no-fast-pskip --no-dct-decimate --psy-rd 1.05:0.10 --qcomp 0.65 --vbv-maxrate 50000 --vbv-bufsize 62500 --partitions all --subme 10 --me umh --no-mbtree --colorprim bt470bg --transfer bt470bg --colormatrix bt470bg --stats "L:\Temp\0174.log" --sar 413:292 --output "L:\Temp\0174.264" "L:\Temp\0174.avs"
avs [info]: 712x428p 413:292 @ 25/1 fps (cfr)
x264 [info]: using SAR=413/292
x264 [info]: using cpu capabilities: MMX2 SSE2Fast SSSE3 FastShuffle SSE4.2
x264 [info]: profile High, level 4.1
x264 [info]: frame I:726 Avg QP:19.49 size: 40927
x264 [info]: frame P:30181 Avg QP:22.46 size: 15898
x264 [info]: frame B:112944 Avg QP:23.56 size: 6485
x264 [info]: consecutive B-frames: 1.1% 1.5% 5.8% 25.6% 18.5% 38.6% 6.3% 2.0% 0.6% 0.2%
x264 [info]: mb I I16..4: 9.2% 66.4% 24.5%
x264 [info]: mb P I16..4: 0.8% 12.7% 2.3% P16..4: 45.8% 22.3% 13.8% 1.0% 0.2% skip: 1.1%
x264 [info]: mb B I16..4: 0.1% 1.2% 0.3% B16..8: 39.9% 11.9% 3.3% direct:13.2% skip:30.2% L0:39.1% L1:38.8% BI:22.1%
x264 [info]: 8x8 transform intra:78.1% inter:57.1%
x264 [info]: direct mvs spatial:99.3% temporal:0.7%
x264 [info]: coded y,uvDC,uvAC intra: 94.8% 0.0% 0.0% inter: 39.1% 0.0% 0.0%
x264 [info]: i16 v,h,dc,p: 27% 13% 16% 44%
x264 [info]: i8 v,h,dc,ddl,ddr,vr,hd,vl,hu: 13% 9% 7% 9% 13% 14% 11% 12% 11%
x264 [info]: i4 v,h,dc,ddl,ddr,vr,hd,vl,hu: 17% 8% 3% 8% 13% 16% 11% 13% 10%
x264 [info]: i8c dc,h,v,p: 100% 0% 0% 0%
x264 [info]: Weighted P-Frames: Y:28.5% UV:0.0%
x264 [info]: ref P L0: 35.8% 15.0% 14.9% 7.0% 5.2% 4.1% 3.6% 2.2% 2.0% 1.8% 1.7% 1.5% 1.5% 1.4% 1.4% 1.0%
x264 [info]: ref B L0: 74.9% 10.9% 3.7% 2.2% 1.5% 1.4% 1.1% 0.8% 0.6% 0.6% 0.5% 0.6% 0.5% 0.4% 0.2%
x264 [info]: ref B L1: 95.6% 4.4%
x264 [info]: kb/s:1726.83
x264 [total]: encoded 143851 frames, 12.35 fps, 1726.83 kb/s

FAQ по просмотру MKV/h.264/AAC

-
Показать сообщения:    

Текущее время: Сегодня 08:18

Часовой пояс: GMT



Вы не можете начинать темы
Вы не можете отвечать на сообщения
Вы не можете редактировать свои сообщения
Вы не можете удалять свои сообщения
Вы не можете голосовать в опросах
Вы не можете прикреплять файлы к сообщениям
Вы не можете скачивать файлы