Важное объявление!
У Нас Все раздачи мультитрекерные, при нуле пиров в релизах, можете смело вставать на закачку!
 
Автор Сообщение

HUNTER

Стаж:
4 года 4 месяца
Сообщений:
56755

Репутация: 101

[+] [-]
Вне форума [Профиль] [ЛС]

Песнь моря / Song of the Sea
Страна: Ирландия, Дания, Бельгия, Люксембург, Франция
Жанр: мультфильм, фэнтези, семейный
Продолжительность: 01:34:00
Год выпуска: 2014
Перевод: Любительский (многоголосый закадровый) CatBug TV
Русские субтитры: есть
Режиссёр: Томм Мур / Tomm Moore
Роли озвучивали: Брендан Глисон, Финола Флэнаган, Пэт Шорт, Дэвид Роул, Лиза Хэннигэн, Джон Кенни
Описание: Сюжет повествует о последней «селки», которая может перевоплощаться из тюленя в человека, и ее путешествии к морю.
Фильм основан на древне-кельтском мифе о селки. Море всегда чарует своей природой. О морях сложено немало легенд. Некоторые из них мама рассказывает своим сыну и дочери. Эти легенды передаются из поколения в поколение: в морских водах живут удивительные существа - селки. Это заколдованные люди в образе тюленей. Дети сначала воспринимают историю матери как сказку. Но вскоре выясняется что дочь Сирша оказывается последней представительницей чудесных существ. Она - селки. Детям открываются многие тайны, о которых они раньше и не подозревали.

Семпл: http://multi-up.com/1044625
Качество: BDRip 1080p
Формат: MKV
Видео: MPEG4 Video (H264) 1920x1038 (246:133) 23.976fps 11.1 Mbps
Аудио: AC-3, 48.0 KHz, 6 ch, 640 Kbps Russian
Аудио 2: DTS, 48.0 KHz, 6 ch, 1 509 Kbps English
Аудио 3: AC-3, 48.0 KHz, 2 ch, 192 Kbps, Commentary
Субтитры: Rus (Full, SDH) (перевели на Notabenoid), Eng (Full, SDH)

Подробные технические данные

GeneralUnique ID : 175759130213063281904521884368718146373 (0x8439FA28F8C509FE80D99C5C19062B45)Complete name : C:\Users\Вика\Desktop\Song.of.the.Sea.2014.BDRip.1080p.mkvFormat : MatroskaFormat version : Version 4 / Version 2File size : 8.83 GiBDuration : 1h 33mnOverall bit rate : 13.4 MbpsEncoded date : UTC 2015-04-20 04:05:14Writing application : mkvmerge v7.4.0 ('Circles') 64bit built on Dec 12 2014 12:19:56Writing library : libebml v1.3.0 + libmatroska v1.4.1_STATISTICS_WRITING_APP : mkvmerge v7.4.0 ('Circles') 64bit built on Dec 12 2014 12:19:56_STATISTICS_WRITING_DATE_UTC : 2015-04-20 04:05:14_STATISTICS_TAGS : BPS DURATION NUMBER_OF_FRAMES NUMBER_OF_BYTESDURATION : 01:33:01.075000000NUMBER_OF_FRAMES : 1109NUMBER_OF_BYTES : 27420
VideoID : 1Format : AVCFormat/Info : Advanced Video CodecFormat profile : High@L4.1Format settings, CABAC : YesFormat settings, ReFrames : 4 framesCodec ID : V_MPEG4/ISO/AVCDuration : 1h 33mnBit rate : 11.1 MbpsWidth : 1 920 pixelsHeight : 1 038 pixelsDisplay aspect ratio : 1.85:1Frame rate mode : ConstantFrame rate : 23.976 fpsColor space : YUVChroma subsampling : 4:2:0Bit depth : 8 bitsScan type : ProgressiveBits/(Pixel*Frame) : 0.232Stream size : 7.11 GiB (81%)Title : MPEG-4AVC@High Profile L4.1, 24/1.001 fps @ 11100 kbpsWriting library : x264 core 146 r2538 121396cEncoding settings : cabac=1 / ref=4 / deblock=1:-3:-3 / analyse=0x3:0x133 / me=umh / subme=11 / psy=1 / psy_rd=0.60:0.00 / mixed_ref=1 / me_range=32 / chroma_me=1 / trellis=2 / 8x8dct=1 / cqm=0 / deadzone=21,11 / fast_pskip=0 / chroma_qp_offset=-2 / threads=6 / lookahead_threads=1 / sliced_threads=0 / nr=0 / decimate=0 / interlaced=0 / bluray_compat=0 / constrained_intra=0 / bframes=6 / b_pyramid=2 / b_adapt=2 / b_bias=0 / direct=3 / weightb=1 / open_gop=0 / weightp=2 / keyint=240 / keyint_min=23 / scenecut=40 / intra_refresh=0 / rc_lookahead=60 / rc=2pass / mbtree=1 / bitrate=11100 / ratetol=1.0 / qcomp=0.60 / qpmin=0 / qpmax=69 / qpstep=4 / cplxblur=20.0 / qblur=0.5 / vbv_maxrate=45000 / vbv_bufsize=45000 / nal_hrd=none / filler=0 / ip_ratio=1.40 / aq=1:0.60Language : EnglishDefault : YesForced : No_STATISTICS_WRITING_APP : mkvmerge v7.4.0 ('Circles') 64bit built on Dec 12 2014 12:19:56_STATISTICS_WRITING_DATE_UTC : 2015-04-20 04:05:14_STATISTICS_TAGS : BPS DURATION NUMBER_OF_FRAMES NUMBER_OF_BYTESDURATION : 01:33:59.634000000NUMBER_OF_FRAMES : 135216NUMBER_OF_BYTES : 7823267944
Audio #1ID : 2Format : AC-3Format/Info : Audio Coding 3Mode extension : CM (complete main)Format settings, Endianness : BigCodec ID : A_AC3Duration : 1h 33mnBit rate mode : ConstantBit rate : 640 KbpsChannel(s) : 6 channelsChannel positions : Front: L C R, Side: L R, LFESampling rate : 48.0 KHzBit depth : 16 bitsCompression mode : LossyStream size : 430 MiB (5%)Title : MVO (CatBug TV)Language : RussianDefault : YesForced : No
Audio #2ID : 3Format : DTSFormat/Info : Digital Theater SystemsMode : 16Format settings, Endianness : BigCodec ID : A_DTSDuration : 1h 33mnBit rate mode : ConstantBit rate : 1 509 KbpsChannel(s) : 6 channelsChannel positions : Front: L C R, Side: L R, LFESampling rate : 48.0 KHzBit depth : 24 bitsCompression mode : LossyStream size : 1 014 MiB (11%)Title : English DTS Master Audio 5.1 @ 1 509 KbpsLanguage : EnglishDefault : NoForced : No
Audio #3ID : 4Format : AC-3Format/Info : Audio Coding 3Mode extension : CM (complete main)Format settings, Endianness : BigCodec ID : A_AC3Duration : 1h 33mnBit rate mode : ConstantBit rate : 192 KbpsChannel(s) : 2 channelsChannel positions : Front: L RSampling rate : 48.0 KHzBit depth : 16 bitsCompression mode : LossyStream size : 129 MiB (1%)Title : English Dolby Digital Audio 2.0 @ 192 kbps CommentaryLanguage : EnglishDefault : NoForced : No
Text #1ID : 5Format : UTF-8Codec ID : S_TEXT/UTF8Codec ID/Info : UTF-8 Plain TextTitle : Full [Notabenoid.org]Language : RussianDefault : NoForced : No
Text #2ID : 6Format : UTF-8Codec ID : S_TEXT/UTF8Codec ID/Info : UTF-8 Plain TextTitle : SDH [Notabenoid.org]Language : RussianDefault : NoForced : No
Text #3ID : 7Format : UTF-8Codec ID : S_TEXT/UTF8Codec ID/Info : UTF-8 Plain TextTitle : FullLanguage : RussianDefault : NoForced : No
Text #4ID : 8Format : UTF-8Codec ID : S_TEXT/UTF8Codec ID/Info : UTF-8 Plain TextTitle : FullLanguage : EnglishDefault : NoForced : No
Text #5ID : 9Format : UTF-8Codec ID : S_TEXT/UTF8Codec ID/Info : UTF-8 Plain TextTitle : SDHLanguage : EnglishDefault : NoForced : No
Menu00:00:00.000 : en:00:00:00.00000:04:26.057 : en:00:04:26.05700:09:28.943 : en:00:09:28.94300:13:23.761 : en:00:13:23.76100:18:49.587 : en:00:18:49.58700:23:29.742 : en:00:23:29.74200:26:30.339 : en:00:26:30.33900:31:07.157 : en:00:31:07.15700:35:10.400 : en:00:35:10.40000:39:53.308 : en:00:39:53.30800:44:19.115 : en:00:44:19.11500:48:53.055 : en:00:48:53.05500:52:21.347 : en:00:52:21.34700:56:24.673 : en:00:56:24.67300:59:58.094 : en:00:59:58.09401:04:53.223 : en:01:04:53.22301:08:52.462 : en:01:08:52.46201:12:59.709 : en:01:12:59.70901:17:48.289 : en:01:17:48.28901:26:47.244 : en:01:26:47.244

Скриншоты


_________________
Показать сообщения:    

Текущее время: Сегодня 15:12

Часовой пояс: GMT



Вы не можете начинать темы
Вы не можете отвечать на сообщения
Вы не можете редактировать свои сообщения
Вы не можете удалять свои сообщения
Вы не можете голосовать в опросах
Вы не можете прикреплять файлы к сообщениям
Вы не можете скачивать файлы