Важное объявление!
У Нас Все раздачи мультитрекерные, при нуле пиров в релизах, можете смело вставать на закачку!
 
Автор Сообщение

HUNTER

Стаж:
4 года 4 месяца
Сообщений:
56790

Репутация: 101

[+] [-]
Вне форума [Профиль] [ЛС]

Песнь моря / Song of the Sea
Страна: Ирландия, Дания, Бельгия
Жанр: Мультипликация
Продолжительность: 01:33:59
Год выпуска: 2014
Перевод: Профессиональный (многоголосый закадровый CatBug TV)
Русские субтитры: нет-Режиссёр: Томм Мур / Tomm Moore
Роли озвучивали: Брендан Глисон, Финола Флэнаган, Пэт Шорт, Дэвид Роул, Лиза Хэннигэн, Джон Кенни-Описание: Море всегда чарует своей природой. О морях сложено немало легенд. Некоторые из них мама рассказывает своим сыну и дочери. Эти легенды передаются из поколения в поколение: в морских водах живут удивительные существа - селки. Это заколдованные люди в образе тюленей. Дети сначала воспринимают историю матери как сказку. Но вскоре выясняется что дочь Сирша оказывается последней представительницей чудесных существ. Она - селки. Детям открываются многие тайны, о которых они раньше и не подозревали.-Качество: BDRip 1080p
Формат: MKV
Видео: AVC, 1920x1036 (1.853), 23.976 fps, 4 417 Kbps (0.093 bit/pixel)
Аудио 1: AC-3, 48.0 KHz, 2 ch, 256 Kbps, CBR (Russian) CatBug TV
Аудио 2: DTS, 48.0 KHz, 6 ch, 1 510 Kbps, CBR (English)
Субтитры: English
Семпл: Забираем тут

Подробные технические данные

ОбщееУникальный идентификатор : 220805139461947381188174444843935179222 (0xA61D85E3182E569EB78DB32FA837A1D6)Полное имя : Song of the Sea 2014 BDRip 1080p.mkvФормат : MatroskaВерсия формата : Version 4 / Version 2Размер файла : 4,14 ГбайтПродолжительность : 1 ч. 33 м.Общий поток : 6308 Кбит/секДата кодирования : UTC 2015-03-24 11:57:10Программа кодирования : mkvmerge v7.6.0 ('Garden of Dreams') 32bit built on Feb 8 2015 12:51:39Библиотека кодирования : libebml v1.3.1 + libmatroska v1.4.2DURATION : 01:33:59.744000000NUMBER_OF_FRAMES : 176242NUMBER_OF_BYTES : 180471808_STATISTICS_WRITING_APP : mkvmerge v7.6.0 ('Garden of Dreams') 32bit built on Feb 8 2015 12:51:39_STATISTICS_WRITING_DATE_UTC : 2015-03-24 11:57:10_STATISTICS_TAGS : BPS DURATION NUMBER_OF_FRAMES NUMBER_OF_BYTES
ВидеоИдентификатор : 1Формат : AVCФормат/Информация : Advanced Video CodecПрофиль формата : High@L4.0Параметр CABAC формата : ДаПараметр ReFrames формата : 4 кадраИдентификатор кодека : V_MPEG4/ISO/AVCПродолжительность : 1 ч. 33 м.Битрейт : 4418 Кбит/секШирина : 1920 пикселейВысота : 1036 пикселейСоотношение сторон : 1,85:1Режим частоты кадров : ПостоянныйЧастота кадров : 23,976 кадра/секЦветовое пространство : YUVСубдискретизация насыщенности : 4:2:0Битовая глубина : 8 битТип развёртки : ПрогрессивнаяБит/(Пиксели*Кадры) : 0.093Размер потока : 2,90 Гбайт (70%)Библиотека кодирования : x264 core 142 r2479 dd79a61Настройки программы : cabac=1 / ref=4 / deblock=1:-1:-1 / analyse=0x3:0x113 / me=umh / subme=11 / psy=1 / psy_rd=1.04:0.20 / mixed_ref=1 / me_range=32 / chroma_me=1 / trellis=2 / 8x8dct=1 / cqm=0 / deadzone=21,11 / fast_pskip=0 / chroma_qp_offset=-3 / threads=12 / lookahead_threads=2 / sliced_threads=0 / nr=0 / decimate=1 / interlaced=0 / bluray_compat=0 / constrained_intra=0 / bframes=7 / b_pyramid=0 / b_adapt=2 / b_bias=0 / direct=1 / weightb=1 / open_gop=0 / weightp=2 / keyint=240 / keyint_min=24 / scenecut=40 / intra_refresh=0 / rc_lookahead=80 / rc=crf / mbtree=1 / crf=23.0 / qcomp=0.70 / qpmin=0 / qpmax=69 / qpstep=4 / vbv_maxrate=20000 / vbv_bufsize=25000 / crf_max=0.0 / nal_hrd=none / filler=0 / ip_ratio=1.40 / aq=2:1.20Язык : EnglishDefault : ДаForced : Нет
Аудио #1Идентификатор : 2Формат : AC-3Формат/Информация : Audio Coding 3Расширение режима : CM (complete main)Параметр Endianness формата : BigИдентификатор кодека : A_AC3Продолжительность : 1 ч. 33 м.Вид битрейта : ПостоянныйБитрейт : 256 Кбит/секКаналы : 2 каналаРасположение каналов : Front: L RЧастота : 48,0 КГцБитовая глубина : 16 битМетод сжатия : С потерямиРазмер потока : 172 Мбайт (4%)Язык : RussianDefault : ДаForced : Нет
Аудио #2Идентификатор : 3Формат : DTSФормат/Информация : Digital Theater SystemsРежим : 16Параметр Endianness формата : BigИдентификатор кодека : A_DTSПродолжительность : 1 ч. 33 м.Вид битрейта : ПостоянныйБитрейт : 1509 Кбит/секКаналы : 6 каналовРасположение каналов : Front: L C R, Side: L R, LFEЧастота : 48,0 КГцБитовая глубина : 24 битМетод сжатия : С потерямиРазмер потока : 1015 Мбайт (24%)Язык : EnglishDefault : НетForced : Нет
ТекстИдентификатор : 4Формат : UTF-8Идентификатор кодека : S_TEXT/UTF8Идентификатор кодека/Информация : UTF-8 Plain TextЯзык : EnglishDefault : НетForced : Нет
Меню00:00:00.000 : en:00:00:00.00000:04:26.057 : en:00:04:26.05700:09:28.943 : en:00:09:28.94300:13:23.761 : en:00:13:23.76100:18:49.587 : en:00:18:49.58700:23:29.742 : en:00:23:29.74200:26:30.339 : en:00:26:30.33900:31:07.157 : en:00:31:07.15700:35:10.400 : en:00:35:10.40000:39:53.308 : en:00:39:53.30800:44:19.115 : en:00:44:19.11500:48:53.055 : en:00:48:53.05500:52:21.347 : en:00:52:21.34700:56:24.673 : en:00:56:24.67300:59:58.094 : en:00:59:58.09401:04:53.223 : en:01:04:53.22301:08:52.462 : en:01:08:52.46201:12:59.709 : en:01:12:59.70901:17:48.289 : en:01:17:48.28901:26:47.244 : en:01:26:47.244

Скриншоты



_________________
Показать сообщения:    

Текущее время: Сегодня 09:54

Часовой пояс: GMT



Вы не можете начинать темы
Вы не можете отвечать на сообщения
Вы не можете редактировать свои сообщения
Вы не можете удалять свои сообщения
Вы не можете голосовать в опросах
Вы не можете прикреплять файлы к сообщениям
Вы не можете скачивать файлы