Важное объявление!
У Нас Все раздачи мультитрекерные, при нуле пиров в релизах, можете смело вставать на закачку!
 
Автор Сообщение

HUNTER

Стаж:
4 года 4 месяца
Сообщений:
56734

Репутация: 101

[+] [-]
Вне форума [Профиль] [ЛС]

Перси Джексон и Море чудовищ / Percy Jackson: Sea of Monsters
Страна: США
Жанр: фэнтези, приключения, семейный
Год выпуска: 2013
Продолжительность: 01:46:07
Перевод: Профессиональный (дублированный)
Cубтитры: Russian (Blu-ray EUR), Ukrainian (Blu-ray EUR), English (SDH-COLORED)
Оригинальная аудиодорожка: английский
Режиссер: Тор Фройденталь / Thor Freudenthal
В ролях: Логан Лерман, Александра Даддарио, Дуглас Смит, Ливэн Рамбин, Брэндон Т. Джексон, Джейк Эйбел, Энтони Хэд, Стэнли Туччи, Коннор Крэш Данн, Палома Квиатковски
Описание: Перси отправляется на поиски своего друга, сатира Гроувера, попавшего в ловушку к циклопу Полифему. На кону стоит не только сатир, но и весь «Лагерь полукровок»: кто-то отравил священное дерево Талии, а это значит, что защита лагеря вот-вот падет и уже ничто не сможет удержать чудовищ от вторжения. Исцелить дерево способно только мифическое Золотое руно, спрятанное на острове Полифема — и, чтобы добраться до него, необходимо переплыть Море Чудовищ и сразиться с его обитателями — Сциллой и Харибдой, сладкоголосыми сиренами и коварной волшебницей Цирцеей.
Сэмпл: http://yadi.sk/d/ikM7REtLDbHHM
Тип релиза: BDRip 1080p
Контейнер: MKV
Видео: 1920x816 at 23.976 fps, x264@L4.1, 2pass, ~17.0 Mbps avg
Аудио: Russian: 48 kHz, DTS, 3/2 (L,C,R,l,r) + LFE ch, ~768.00 kbps avg |Дубляж, Blu-ray EUR|
Аудио 2: Ukrainian: 48 kHz, AC3, 3/2 (L,C,R,l,r) + LFE ch, ~448.00 kbps avg |Дубляж, Blu-ray EUR|
Аудио 3: English: 48 kHz, DTS-ES, 3/3 (L,C,R,l,r) + LFE ch, ~1536.00 kbps avg
Аудио 4: English: 48 kHz, AC3, 3/2 (L,C,R,l,r) + LFE ch, ~448.00 kbps avg |Descriptive|
Формат субтитров: softsub (SRT)

MediaInfo

Общее
Уникальный идентификатор : 193700078047088052055025047200399262956 (0x91B9472E8DBF9041A34DDDBB696684EC)
Полное имя : Q:\Фильмы HD\Percy.Jackson.Sea.of.Monsters.2013.BluRay.1080p.DTS.Rus.Ukr.2xEng.HDCLUB.mkv
Формат : Matroska
Версия формата : Version 2
Размер файла : 15,0 Гбайт
Продолжительность : 1 ч. 46 м.
Общий поток : 20,2 Мбит/сек
Название фильма : Percy Jackson: Sea of Monsters (2013) - Release for HDCLUB
Дата кодирования : UTC 2013-11-26 18:37:15
Программа кодирования : mkvmerge v3.4.0 ('Rapunzel') built on May 15 2010 09:38:20
Библиотека кодирования : libebml v0.8.0 + libmatroska v0.9.0
Видео
Идентификатор : 1
Формат : AVC
Формат/Информация : Advanced Video Codec
Профиль формата : High@L4.1
Параметр CABAC формата : Да
Параметр ReFrames формата : 5 кадров
Идентификатор кодека : V_MPEG4/ISO/AVC
Продолжительность : 1 ч. 46 м.
Битрейт : 17,0 Мбит/сек
Ширина : 1920 пикселей
Высота : 816 пикселей
Соотношение сторон : 2,35:1
Частота кадров : 23,976 кадра/сек
Цветовое пространство : YUV
Субдискретизация насыщенности : 4:2:0
Битовая глубина : 8 бит
Тип развёртки : Прогрессивная
Бит/(Пиксели*Кадры) : 0.453
Размер потока : 12,3 Гбайт (82%)
Заголовок : Percy Jackson: Sea of Monsters (2013) - Release for HDCLUB
Библиотека кодирования : x264 core 140 r2377 1ca7bb9
Настройки программы : cabac=1 / ref=5 / deblock=1:-3:-3 / analyse=0x3:0x133 / me=tesa / subme=10 / psy=1 / psy_rd=1.05:0.00 / mixed_ref=1 / me_range=24 / chroma_me=1 / trellis=2 / 8x8dct=1 / cqm=0 / deadzone=21,11 / fast_pskip=0 / chroma_qp_offset=-2 / threads=12 / lookahead_threads=3 / sliced_threads=0 / nr=0 / decimate=0 / interlaced=0 / bluray_compat=0 / constrained_intra=0 / bframes=10 / b_pyramid=2 / b_adapt=2 / b_bias=0 / direct=3 / weightb=1 / open_gop=0 / weightp=2 / keyint=240 / keyint_min=23 / scenecut=40 / intra_refresh=0 / rc_lookahead=60 / rc=2pass / mbtree=0 / bitrate=17000 / ratetol=1.0 / qcomp=0.70 / qpmin=0 / qpmax=69 / qpstep=4 / cplxblur=20.0 / qblur=0.5 / vbv_maxrate=62500 / vbv_bufsize=78125 / nal_hrd=none / filler=0 / ip_ratio=1.20 / pb_ratio=1.10 / aq=1:0.80
Язык : English
Default : Да
Forced : Нет
Аудио #1
Идентификатор : 2
Формат : DTS
Формат/Информация : Digital Theater Systems
Идентификатор кодека : A_DTS
Продолжительность : 1 ч. 46 м.
Вид битрейта : Постоянный
Битрейт : 755 Кбит/сек
Каналы : 6 каналов
Расположение каналов : Front: L C R, Side: L R, LFE
Частота : 48,0 КГц
Битовая глубина : 24 бит
Метод сжатия : С потерями
Размер потока : 573 Мбайт (4%)
Заголовок : DTS 5.1 @ 768 kbps - DUB, Blu-ray EUR
Язык : Russian
Default : Да
Forced : Нет
Аудио #2
Идентификатор : 3
Формат : AC-3
Формат/Информация : Audio Coding 3
Расширение режима : CM (complete main)
Идентификатор кодека : A_AC3
Продолжительность : 1 ч. 46 м.
Вид битрейта : Постоянный
Битрейт : 448 Кбит/сек
Каналы : 6 каналов
Расположение каналов : Front: L C R, Side: L R, LFE
Частота : 48,0 КГц
Битовая глубина : 16 бит
Метод сжатия : С потерями
Размер потока : 340 Мбайт (2%)
Заголовок : AC3 5.1 @ 448 kbps - DUB, Blu-ray EUR
Язык : Ukrainian
Default : Нет
Forced : Нет
Аудио #3
Идентификатор : 4
Формат : DTS
Формат/Информация : Digital Theater Systems
Профиль формата : ES
Идентификатор кодека : A_DTS
Продолжительность : 1 ч. 46 м.
Вид битрейта : Постоянный
Битрейт : 1510 Кбит/сек
Каналы : 6 каналов
Расположение каналов : Front: L C R, Side: L R, LFE
Частота : 48,0 КГц
Битовая глубина : 24 бит
Метод сжатия : С потерями
Задержка видео : 11 мс.
Размер потока : 1,12 Гбайт (7%)
Заголовок : DTS-ES @ 1536 kbps
Язык : English
Default : Нет
Forced : Нет
Аудио #4
Идентификатор : 5
Формат : AC-3
Формат/Информация : Audio Coding 3
Расширение режима : CM (complete main)
Идентификатор кодека : A_AC3
Продолжительность : 1 ч. 46 м.
Вид битрейта : Постоянный
Битрейт : 448 Кбит/сек
Каналы : 6 каналов
Расположение каналов : Front: L C R, Side: L R, LFE
Частота : 48,0 КГц
Битовая глубина : 16 бит
Метод сжатия : С потерями
Размер потока : 340 Мбайт (2%)
Заголовок : AC3 5.1 @ 448 kbps - Descriptive
Язык : English
Default : Нет
Forced : Нет
Текст #1
Идентификатор : 6
Формат : UTF-8
Идентификатор кодека : S_TEXT/UTF8
Идентификатор кодека/Информация : UTF-8 Plain Text
Заголовок : Blu-ray EUR
Язык : Russian
Default : Нет
Forced : Нет
Текст #2
Идентификатор : 7
Формат : UTF-8
Идентификатор кодека : S_TEXT/UTF8
Идентификатор кодека/Информация : UTF-8 Plain Text
Заголовок : Blu-ray EUR
Язык : Ukrainian
Default : Нет
Forced : Нет
Текст #3
Идентификатор : 8
Формат : UTF-8
Идентификатор кодека : S_TEXT/UTF8
Идентификатор кодека/Информация : UTF-8 Plain Text
Заголовок : SDH-COLORED
Язык : English
Default : Нет
Forced : Нет
Меню
00:00:00.000 : en:00:00:00.000
00:04:05.454 : en:00:04:05.454
00:06:43.069 : en:00:06:43.069
00:09:31.696 : en:00:09:31.696
00:13:53.124 : en:00:13:53.124
00:19:17.156 : en:00:19:17.156
00:20:48.038 : en:00:20:48.038
00:22:10.496 : en:00:22:10.496
00:25:30.529 : en:00:25:30.529
00:28:22.826 : en:00:28:22.826
00:30:27.534 : en:00:30:27.534
00:33:19.998 : en:00:33:19.998
00:37:01.261 : en:00:37:01.261
00:39:49.596 : en:00:39:49.596
00:45:16.380 : en:00:45:16.380
00:48:50.177 : en:00:48:50.177
00:52:42.951 : en:00:52:42.951
00:56:35.100 : en:00:56:35.100
01:00:19.866 : en:01:00:19.866
01:03:35.895 : en:01:03:35.895
01:05:40.687 : en:01:05:40.687
01:10:41.696 : en:01:10:41.696
01:12:32.181 : en:01:12:32.181
01:16:52.817 : en:01:16:52.817
01:19:39.441 : en:01:19:39.441
01:23:01.768 : en:01:23:01.768
01:25:45.807 : en:01:25:45.807
01:29:54.264 : en:01:29:54.264
01:32:47.312 : en:01:32:47.312
01:34:25.243 : en:01:34:25.243
01:36:07.971 : en:01:36:07.971
01:37:39.187 : en:01:37:39.187

Скриншоты


_________________
Показать сообщения:    

Текущее время: Сегодня 12:45

Часовой пояс: GMT



Вы не можете начинать темы
Вы не можете отвечать на сообщения
Вы не можете редактировать свои сообщения
Вы не можете удалять свои сообщения
Вы не можете голосовать в опросах
Вы не можете прикреплять файлы к сообщениям
Вы не можете скачивать файлы