Важное объявление!
У Нас Все раздачи мультитрекерные, при нуле пиров в релизах, можете смело вставать на закачку!
 
Автор Сообщение

HUNTER

Стаж:
4 года 4 месяца
Сообщений:
56722

Репутация: 101

[+] [-]
Вне форума [Профиль] [ЛС]

Переулок Святого Мартина (Тротуары Лондона или Переулок Святого Мартина) / Sidewalks of London or St. Martin's Lane-
Год выпуска: 1938
Страна: Великобритания
Жанр: комедия, мелодрама
Продолжительность: 01:26:26
Перевод 1: Профессиональный (двухголосый закадровый) Film Prestige
Перевод 2: Профессиональный (многоголосый закадровый) DVD Магия
Оригинальная аудиодорожка: Английская
Cубтитры: Русские-Режиссер: Тим Уилан / Tim Whelan
В ролях: Чарльз Лотон, Вивьен Ли, Рекс Харрисон, Ларри Адлер, Тайрон Гатри, Маире О’Нилл, Гас МакНотон, Полли Уорд, Бейзил Гилл, Хелен Хэй-Описание:
Отгремела первая мировая война, и на тротуарах Лондона, сменяя друг друга, вновь выступают уличные артисты. Их заработок невелик, а конкуренция столь высока, что они еле-еле сводят концы с концами. Бездомная девушка Либерти, умеет хорошо танцевать. Однажды она крадет серебряный портсигар у прохожего, но это замечает руководитель уличной труппы Чарльз Стэджерс. Он уговаривает девушку вернуть украденный портсигар владельцу. Чарли берет Либби под свое крыло, и они организуют уличный квартет...-За "FP" спасибо intellect, за DVD Магию – daviderra.
| IMDb | Сэмпл-Качество: BDRip 720p (GCJM)
Контейнер: MKV
Видео: x264, 986x720 (1.37:1), 23.976 fps, 4956 kbps
Аудио 1: Русский AС3, 2.0, 48 kHz, 192 kbps — Film Prestige
Аудио 2: Русский AС3, 2.0, 48 kHz, 192 kbps — DVD Магия
Аудио 3: Английский FLAC 2.0, 48 kHz, 745 kbps
Формат субтитров: softsub (SRT)
СкриншотыMI
General
Unique ID : 171500184705961487081937069681303569606 (0x8105BBEF3E529C7F85790585CDE744C6)
Complete name : St.Martin's.Lane.1938.720p.Bluray.x264-GCJM.mkv
Format : Matroska
Format version : Version 2
File size : 3.67 GiB
Duration : 1h 26mn
Overall bit rate mode : Variable
Overall bit rate : 6 085 Kbps
Movie name : Sidewalks of London or St. Martin's Lane (1937) – RuTracker
Encoded date : UTC 2014-05-05 20:01:43
Writing application : mkvmerge v6.1.0 ('Old Devil') built on Mar 2 2013 14:32:37
Writing library : libebml v1.3.0 + libmatroska v1.4.0
Attachment : Yes
Video
ID : 1
Format : AVC
Format/Info : Advanced Video Codec
Format profile : High@L4.1
Format settings, CABAC : Yes
Format settings, ReFrames : 6 frames
Codec ID : V_MPEG4/ISO/AVC
Duration : 1h 26mn
Nominal bit rate : 4 956 Kbps
Width : 986 pixels
Height : 720 pixels
Display aspect ratio : 4:3
Frame rate mode : Constant
Frame rate : 23.976 fps
Color space : YUV
Chroma subsampling : 4:2:0
Bit depth : 8 bits
Scan type : Progressive
Bits/(Pixel*Frame) : 0.291
Title : St.Martin's.Lane.1938.720p.Bluray.DTS.x264-GCJM
Writing library : x264 core 133 r2334 a3ac64b
Encoding settings : cabac=1 / ref=6 / deblock=1:-3:-3 / analyse=0x3:0x133 / me=umh / subme=9 / psy=1 / psy_rd=1.00:0.15 / mixed_ref=1 / me_range=24 / chroma_me=1 / trellis=1 / 8x8dct=1 / cqm=0 / deadzone=21,11 / fast_pskip=0 / chroma_qp_offset=-3 / threads=4 / lookahead_threads=1 / sliced_threads=0 / nr=0 / decimate=1 / interlaced=0 / bluray_compat=0 / constrained_intra=0 / bframes=4 / b_pyramid=2 / b_adapt=2 / b_bias=0 / direct=1 / weightb=1 / open_gop=0 / weightp=2 / keyint=230 / keyint_min=23 / scenecut=40 / intra_refresh=0 / rc_lookahead=40 / rc=2pass / mbtree=1 / bitrate=4956 / ratetol=1.0 / qcomp=0.60 / qpmin=0 / qpmax=69 / qpstep=4 / cplxblur=20.0 / qblur=0.5 / vbv_maxrate=40000 / vbv_bufsize=30000 / nal_hrd=none / ip_ratio=1.40 / aq=1:1.00
Language : English
Default : Yes
Forced : No
Color primaries : BT.709
Transfer characteristics : BT.709
Matrix coefficients : BT.709
Audio #1
ID : 2
Format : AC-3
Format/Info : Audio Coding 3
Mode extension : CM (complete main)
Format settings, Endianness : Big
Codec ID : A_AC3
Duration : 1h 26mn
Bit rate mode : Constant
Bit rate : 192 Kbps
Channel(s) : 2 channels
Channel positions : Front: L R
Sampling rate : 48.0 KHz
Bit depth : 16 bits
Compression mode : Lossy
Stream size : 119 MiB (3%)
Title : DVO – Film Prestige
Language : Russian
Default : Yes
Forced : No
Audio #2
ID : 3
Format : AC-3
Format/Info : Audio Coding 3
Mode extension : CM (complete main)
Format settings, Endianness : Big
Codec ID : A_AC3
Duration : 1h 26mn
Bit rate mode : Constant
Bit rate : 192 Kbps
Channel(s) : 2 channels
Channel positions : Front: L R
Sampling rate : 48.0 KHz
Bit depth : 16 bits
Compression mode : Lossy
Stream size : 119 MiB (3%)
Title : MVO – DVD Магия
Language : Russian
Default : No
Forced : No
Audio #3
ID : 4
Format : FLAC
Format/Info : Free Lossless Audio Codec
Codec ID : A_FLAC
Duration : 1h 26mn
Bit rate mode : Variable
Channel(s) : 2 channels
Sampling rate : 48.0 KHz
Bit depth : 24 bits
Title : Original
Writing library : libFLAC 1.2.1 (UTC 2007-09-17)
Language : English
Default : No
Forced : No
Text
ID : 5
Format : UTF-8
Codec ID : S_TEXT/UTF8
Codec ID/Info : UTF-8 Plain Text
Title : Film Prestige
Language : Russian
Default : No
Forced : No
Menu
00:00:00.000 : en:1. Busker's Alley
00:10:22.455 : en:2. Nicking from the Swell
00:18:59.096 : en:3. Morning with Charlie
00:32:14.015 : en:4. Joining the Act
00:45:14.921 : en:5. Tale of Two Worlds
00:57:14.681 : en:6. A Star is Born
01:10:18.673 : en:7. On Trial
01:20:54.850 : en:8. If

_________________
Показать сообщения:    

Текущее время: Сегодня 12:15

Часовой пояс: GMT



Вы не можете начинать темы
Вы не можете отвечать на сообщения
Вы не можете редактировать свои сообщения
Вы не можете удалять свои сообщения
Вы не можете голосовать в опросах
Вы не можете прикреплять файлы к сообщениям
Вы не можете скачивать файлы