Важное объявление!
У Нас Все раздачи мультитрекерные, при нуле пиров в релизах, можете смело вставать на закачку!
 
Автор Сообщение

HUNTER

Стаж:
4 года 4 месяца
Сообщений:
56749

Репутация: 101

[+] [-]
Вне форума [Профиль] [ЛС]

Переступить черту / Walk the Line
Страна: США, Германия
Жанр: мелодрама, драма, музыка, биография
Год выпуска: 2005
Продолжительность: 02:05:36
Перевод: Профессиональный (дублированный)
Cубтитры: нет
Оригинальная аудиодорожка: нет
Режиссер: Джеймс Мэнголд / James Mangold
В ролях: Хоакин Феникс, Риз Уизерспун, Джиннифер Гудвин, Роберт Патрик, Даллас Робертс, Дэн Джон Миллер, Ларри Бэгби
Описание: «Переступить черту» (англ. Walk The Line; буквальный перевод — «Ступая по черте», назван по песне Дж. Кэша) — художественно-биографический фильм Джеймса Мэнголда о жизни звезды кантри Джонни Кэша (Хоакин Феникс) и его отношениях с Джун Картер (Риз Уизерспун). Время действия фильма — 1940—1960-е гг. Юность Кэша, родившегося в 1932 году в Арканзасе, была омрачена трагической гибелью его старшего брата и пренебрежительным отношением к нему со стороны отца, считавшего его плохим сыном. Военную службу будущий певец и музыкант проходил в Германии в рядах Военно-воздушных сил США. В 1954 году он женился на Вивиан, которая родила ему дочь, а в 1955-м, в возрасте 23 лет, выпустил свой первый хит «Cry, Cry, Cry». Вскоре Кэш отправился в турне по США вместе с Джерри Ли Льюисом, Элвисом Пресли и Джун Картер, о которой он безнадежно мечтал целых десять лет...
Доп. информация: Версия хоть и не расширенная, но здесь самая полная картинка.
Сэмпл: http://multi-up.com/958598
Тип релиза: HDTV 1080i
Контейнер: TS
Видео: AVC, 1920x1080 (16/9), 25.000 fps, 12.3 Mbps (0.237 bit/pixel)
Аудио: MP2, 48.0 KHz, 2 ch, 192 Kbps, CBR (Russian)

MediaInfo

Общее
Идентификатор : 3 (0x3)
Полное имя : K:\МОИ РАЗДАЧИ\Переступить черту.ts
Формат : MPEG-TS
Размер файла : 11,8 Гбайт
Продолжительность : 2 ч. 5 м.
Режим общего битрейта : Переменный
Общий поток : 13,4 Мбит/сек
Видео
Идентификатор : 2141 (0x85D)
Идентификатор меню : 21004 (0x520C)
Формат : AVC
Формат/Информация : Advanced Video Codec
Профиль формата : Main@L4.0
Параметр CABAC формата : Да
Параметр ReFrames формата : 3 кадра
Идентификатор кодека : 27
Продолжительность : 2 ч. 5 м.
Битрейт : 12,6 Мбит/сек
Ширина : 1920 пикселей
Высота : 1080 пикселей
Соотношение сторон : 16:9
Частота кадров : 25,000 кадров/сек
Стандарт вещания : Component
Цветовое пространство : YUV
Субдискретизация насыщенности : 4:2:0
Битовая глубина : 8 бит
Тип развёртки : Чересстрочная
Порядок развёртки : Верхнее поле первое
Бит/(Пиксели*Кадры) : 0.242
Размер потока : 11,0 Гбайт (94%)
Основные цвета : BT.709
Характеристики трансфера : BT.709
Коэффициенты матрицы : BT.709
Аудио
Идентификатор : 2142 (0x85E)
Идентификатор меню : 21004 (0x520C)
Формат : MPEG Audio
Версия формата : Version 1
Профиль формата : Layer 2
Идентификатор кодека : 4
Продолжительность : 2 ч. 5 м.
Вид битрейта : Постоянный
Битрейт : 192 Кбит/сек
Каналы : 2 канала
Частота : 48,0 КГц
Метод сжатия : С потерями
Задержка видео : -1 мс.
Размер потока : 172 Мбайт (1%)
Язык : Russian

Скриншоты



_________________
Показать сообщения:    

Текущее время: Сегодня 20:56

Часовой пояс: GMT



Вы не можете начинать темы
Вы не можете отвечать на сообщения
Вы не можете редактировать свои сообщения
Вы не можете удалять свои сообщения
Вы не можете голосовать в опросах
Вы не можете прикреплять файлы к сообщениям
Вы не можете скачивать файлы