Важное объявление!
У Нас Все раздачи мультитрекерные, при нуле пиров в релизах, можете смело вставать на закачку!
 
Автор Сообщение

HUNTER

Стаж:
4 года 4 месяца
Сообщений:
56733

Репутация: 101

[+] [-]
Вне форума [Профиль] [ЛС]

Пересечение 10-й и Вульф / 10th & Wolf-
Страна: США
Жанр: Драма, Криминал, Детектив
Год выпуска: 2005
Продолжительность: 01:43:48
Перевод: Профессиональный (многоголосый закадровый)
Cубтитры: русские, украинские
Оригинальная аудиодорожка: английский
Режиссер: Роберт Мореско / Robert Moresco
В ролях: Вэл Килмер /Val Kilmer/, Дэннис Хоппер /Dennis Hopper/, Джеймс Марсден /James Marsden/,
Джованни Рибизи /Giovanni Ribisi/, Брайан Деннехи /Brian Dennehy/, Билли Галло /Billy Gallo/-Описание: Томми был еще ребенком, когда убили его отца, одного из главарей мафии Филадельфии.
Его брат и кузен остаются верны «семейному делу», но сам Томми решает завязать со своим прошлым и идет служить в армию.
Когда из-за конфликта с командованием ему грозит военный трибунал,
агенты ФБР в обмен на свободу предлагают ему вернуться в преступный бизнес и стать тайным осведомителем.
Томми предстоит сделать самый трудный выбор: или пойти против закона, или предать брата и друга...
Вот вам яркий пример того, что Джеймс Марсден ошибочно играл роли второго плана.
Фильм, сочетающий в себе все достоинства «гангстерской саги» и напряженной психологической драмы,
снят по мотивам реальных событий из жизни специального агента ФБР Джозефа Пистоне.
В фильме очень много известных актеров, операторская работа и сценарий на высшем уровне.
Сразу видно, что к фильму отнеслись серьезно и тщательно продумали каждую деталь.
Насколько мне известно, этот фильм является второй частью культового криминала «Донни Браско» .
-Доп. информация: ### Этот DVD был здесь на треккере
Бонусы: Анонсы, Создатели и исполнители, Разбивка по главам, Оригинальный трейлер, Смотрите на DVD.
Меню: Русское, статичное

Сэмпл: Скачать
Тип релиза: DVD9
Контейнер: DVD-Video
Видео: MPEG, PAL 16:9 (720x576) VBR, ~5403 Кбит/сек
Аудио: Dolby AC3, 6 ch, 448 Кбит/сек, 48,0 КГц -(Русская) Многоголосый закадровый
Аудио 2: Dolby AC3, 6 ch, 448 Кбит/сек, 48,0 КГц -(Английская) Оригинал
Аудио 3: DTS, 5 ch, 768 Кбит/сек, 48,0 КГц -(Русская) Многоголосый закадровый-

MediaInfo

Формат : MPEG-PS
Размер файла : 1024 Мбайт
Продолжительность : 19 м.
Режим общего битрейта : Переменный
Общий поток : 7197 Кбит/сек
Видео
Идентификатор : 224 (0xE0)
Формат : MPEG Video
Версия формата : Version 2
Профиль формата : Main@Main
Параметр BVOP формата : Да
Параметр матрицы формата : Выборочная
Параметр GOP формата : M=3, N=15
Format_Settings_PictureStructure : Frame
Продолжительность : 19 м.
Вид битрейта : Переменный
Битрейт : 5403 Кбит/сек
Максимальный битрейт : 8000 Кбит/сек
Ширина : 720 пикселей
Высота : 576 пикселей
Соотношение сторон : 16:9
Частота кадров : 25,000 кадров/сек
Стандарт вещания : PAL
Цветовое пространство : YUV
Субдискретизация насыщенности : 4:2:0
Битовая глубина : 8 бит
Тип развёртки : Чересстрочная
Порядок развёртки : Нижнее поле первое
Метод сжатия : С потерями
Бит/(Пиксели*Кадры) : 0.521
Временной код первого кадра : 00:00:00:00
Оригинал временного кода : Group of pictures header
Размер потока : 769 Мбайт (75%)
Gop_OpenClosed_FirstFrame : Closed
Аудио #1
Идентификатор : 189 (0xBD)-128 (0x80)
Формат : AC-3
Формат/Информация : Audio Coding 3
Расширение режима : CM (complete main)
Параметр Endianness формата : Big
Режим смешивания : DVD-Video
Продолжительность : 19 м.
Вид битрейта : Постоянный
Битрейт : 448 Кбит/сек
Каналы : 6 каналов
Расположение каналов : Front: L C R, Side: L R, LFE
Частота : 48,0 КГц
Битовая глубина : 16 бит
Метод сжатия : С потерями
Размер потока : 63,7 Мбайт (6%)
Аудио #2
Идентификатор : 189 (0xBD)-130 (0x82)
Формат : AC-3
Формат/Информация : Audio Coding 3
Расширение режима : CM (complete main)
Параметр Endianness формата : Big
Режим смешивания : DVD-Video
Продолжительность : 19 м.
Вид битрейта : Постоянный
Битрейт : 448 Кбит/сек
Каналы : 6 каналов
Расположение каналов : Front: L C R, Side: L R, LFE
Частота : 48,0 КГц
Битовая глубина : 16 бит
Метод сжатия : С потерями
Размер потока : 63,7 Мбайт (6%)
Аудио #3
Идентификатор : 189 (0xBD)-137 (0x89)
Формат : DTS
Формат/Информация : Digital Theater Systems
Режим : 16
Параметр Endianness формата : Big
Режим смешивания : DVD-Video
Продолжительность : 19 м.
Вид битрейта : Постоянный
Битрейт : 755 Кбит/сек
Каналы : 6 каналов
Расположение каналов : Front: L C R, Side: L R, LFE
Частота : 48,0 КГц
Битовая глубина : 24 бит
Метод сжатия : С потерями
Размер потока : 107 Мбайт (10%)
Текст #1
Идентификатор : 189 (0xBD)-32 (0x20)
Формат : RLE
Формат/Информация : Run-length encoding
Режим смешивания : DVD-Video
Текст #2
Идентификатор : 189 (0xBD)-33 (0x21)
Формат : RLE
Формат/Информация : Run-length encoding
Режим смешивания : DVD-Video
**************************************************************************
Title: Peresechenie.10-j.i.vulf.2006.DVD-9
Size: 5.62 Gb ( 5 891 340,00 KBytes ) - DVD-9
Enabled regions: 1, 2, 3, 4, 5, 6, 8
VTS_01 :
Play Length: 00:00:00
Video: PAL 4:3 (720x576) VBR
VTS_02 :
Play Length: 00:00:15+00:01:40+00:02:29+00:02:24+00:02:29+00:02:07
Video: PAL 4:3 (720x576) VBR
Audio:
Not specified (Dolby AC3, 2 ch)
VTS_03 :
Play Length: 01:43:48
Video: PAL 16:9 (720x576) VBR, Auto Letterboxed
Audio:
Not specified (Dolby AC3, 6 ch)
Not specified (DTS, 6 ch)
Not specified (Dolby AC3, 6 ch)
Subtitles:
Not specified
Not specified
* Menus Information *
VIDEO_TS Menu
Video:
NTSC 4:3 (720x480) VBR
Auto Pan&Scan, Auto Letterboxed
English Language Unit :
Title Menu
VTS_01 Menu
Video:
PAL 4:3 (720x576) VBR
Audio:
Not specified (Dolby AC3, 2 ch)
English Language Unit :
Root Menu
Angle menu
VTS_02 Menu
Video:
PAL 4:3 (720x576) VBR
English Language Unit :
Root Menu
VTS_03 Menu
Video:
NTSC 4:3 (720x480) VBR
Auto Pan&Scan, Auto Letterboxed
English Language Unit :
Root Menu
******************************************************************************

Скриншоты меню

Скриншоты с субтитрами

-

_________________
Показать сообщения:    

Текущее время: Сегодня 01:50

Часовой пояс: GMT



Вы не можете начинать темы
Вы не можете отвечать на сообщения
Вы не можете редактировать свои сообщения
Вы не можете удалять свои сообщения
Вы не можете голосовать в опросах
Вы не можете прикреплять файлы к сообщениям
Вы не можете скачивать файлы