Важное объявление!
У Нас Все раздачи мультитрекерные, при нуле пиров в релизах, можете смело вставать на закачку!
 
Автор Сообщение

HUNTER

Стаж:
4 года 4 месяца
Сообщений:
56765

Репутация: 101

[+] [-]
Вне форума [Профиль] [ЛС]


Переполох в Гималаях
Lissi and the Wild Emperor / Lissi und der wilde Kaiser
-

  • Год производства: 2007

  • Страна: Германия

  • Жанр: мультфильм, комедия, приключения

  • Продолжительность: 01:24:43

  • Перевод: Профессиональный (полное дублирование)

  • Субтитры: GER-
  • Режиссер: Михаэль Хербиг / Michael Herbig
    -
  • Описание: Во дворце не жизнь, а сплошная мечта. С утра до вечера все придворные только и делают, что ничего не делают. Император Франц и его женушка Лизи - экстравагантная парочка, первые богачи королевства. Чтобы развлечься, они жгут деньги, играют в гольф трюфелями и прикалываются над слугами. В этом королевстве все веселы и довольны. Но однажды случилось невероятное: Лизи похитили! Нашелся же ненормальный...
    -
  • Качество видео: BDRip 1080p

  • Формат видео: mkv

  • Видео кодек: H264

  • Аудио кодек: AC3

  • Видео: 1920x816 (2.35:1), 23.976 fps, 9 410 Kbps, 0.251 bit/pixel

  • Аудио#1: 48 kHz, AC3 6 ch ~448 kbps avg - Дубляж

  • Аудио#2: 48 kHz, DTS 6 ch ~1510 kbps avg - Оригинал, GER-
  • Автор рипа: falco
-

Доп. информация

Скриншоты

MediaInfo

Код: copyText_writeLink('this.parentNode.parentNode.nextSibling.nextSibling');
General
Unique ID : 188551138711606706181642894120926822405 (0x8DD9A0DF6E8DB97CAD57B3B93EFBC005)
Complete name : D:\Lissi.and.the.Wild.Emperor.2007.BDRip.1080p.falco.mkv
Format : Matroska
Format version : Version 4 / Version 2
File size : 7.05 GiB
Duration : 1h 24mn
Overall bit rate : 11.9 Mbps
Encoded date : UTC 2013-08-27 16:36:22
Writing application : mkvmerge v6.3.0 ('You can't stop me!') built on Jun 28 2013 20:09:41
Writing library : libebml v1.3.0 + libmatroska v1.4.0
Video
ID : 1
Format : AVC
Format/Info : Advanced Video Codec
Format profile : [url=mailto:Main@L4.1]Main@L4.1[/url]
Format settings, CABAC : Yes
Format settings, ReFrames : 4 frames
Codec ID : V_MPEG4/ISO/AVC
Duration : 1h 24mn
Bit rate : 9 410 Kbps
Width : 1 920 pixels
Height : 816 pixels
Display aspect ratio : 2.35:1
Frame rate : 23.976 fps
Color space : YUV
Chroma subsampling : 4:2:0
Bit depth : 8 bits
Scan type : Progressive
Bits/(Pixel*Frame) : 0.251
Stream size : 5.44 GiB (77%)
Writing library : x264 core 130 r2273 b3065e6
Encoding settings : cabac=1 / ref=4 / deblock=1:0:0 / analyse=0x1:0x131 / me=umh / subme=10 / psy=1 / psy_rd=1.00:0.00 / mixed_ref=1 / me_range=16 / chroma_me=1 / trellis=2 / 8x8dct=0 / cqm=0 / deadzone=21,11 / fast_pskip=0 / chroma_qp_offset=-4 / threads=6 / lookahead_threads=1 / sliced_threads=0 / nr=0 / decimate=0 / interlaced=0 / bluray_compat=0 / constrained_intra=0 / bframes=8 / b_pyramid=2 / b_adapt=0 / b_bias=0 / direct=3 / weightb=1 / open_gop=0 / weightp=2 / keyint=250 / keyint_min=23 / scenecut=40 / intra_refresh=0 / rc_lookahead=50 / rc=2pass / mbtree=1 / bitrate=9410 / ratetol=1.0 / qcomp=0.60 / qpmin=0 / qpmax=69 / qpstep=4 / cplxblur=20.0 / qblur=0.5 / ip_ratio=1.40 / aq=1:1.00
Default : Yes
Forced : No
Audio #1
ID : 2
Format : AC-3
Format/Info : Audio Coding 3
Mode extension : CM (complete main)
Format settings, Endianness : Big
Codec ID : A_AC3
Duration : 1h 24mn
Bit rate mode : Constant
Bit rate : 448 Kbps
Channel(s) : 6 channels
Channel positions : Front: L C R, Side: L R, LFE
Sampling rate : 48.0 KHz
Bit depth : 16 bits
Compression mode : Lossy
Stream size : 271 MiB (4%)
Language : Russian
Default : Yes
Forced : No
Audio #2
ID : 3
Format : DTS
Format/Info : Digital Theater Systems
Format profile : HRA / Core
Codec ID : A_DTS
Duration : 1h 24mn
Bit rate mode : Constant
Bit rate : 2 047 Kbps / 1 510 Kbps
Channel(s) : 6 channels
Channel positions : Front: L C R, Side: L R, LFE
Sampling rate : 48.0 KHz
Bit depth : 16 bits
Compression mode : Lossy
Stream size : 1.21 GiB (17%)
Language : German
Default : No
Forced : No
Text
ID : 4
Format : PGS
Muxing mode : zlib
Codec ID : S_HDMV/PGS
Codec ID/Info : The same subtitle format used on BDs/HD-DVDs
Language : German
Default : Yes
Forced : No

_________________
Показать сообщения:    

Текущее время: Сегодня 01:27

Часовой пояс: GMT



Вы не можете начинать темы
Вы не можете отвечать на сообщения
Вы не можете редактировать свои сообщения
Вы не можете удалять свои сообщения
Вы не можете голосовать в опросах
Вы не можете прикреплять файлы к сообщениям
Вы не можете скачивать файлы