Важное объявление!
У Нас Все раздачи мультитрекерные, при нуле пиров в релизах, можете смело вставать на закачку!
 
Автор Сообщение

HUNTER

Стаж:
4 года 4 месяца
Сообщений:
56829

Репутация: 101

[+] [-]
Вне форума [Профиль] [ЛС]

-Пережить Рождество / Surviving Christmas«Поделись теплом»
Страна/Выпущено: США, DreamWorks SKG, Tall Trees Productions, LivePlanet
Жанр: Комедия, мелодрама
Год выпуска: 2004
Продолжительность: 01:30:43-Перевод 1: Профессиональный (полное дублирование)
Перевод 2: Профессиональный (двухголосый закадровый) Tycoon-Studio
Перевод 3: Авторский (одноголосый закадровый) С. Визгунов
Перевод 4: Авторский (одноголосый закадровый) Ю. Немахов
Оригинальная аудиодорожка: английский
Cубтитры: русские, украинские, английские
Режиссер: Майк Митчелл / Mike Mitchell
В ролях: Бен Аффлек, Джеймс Гандольфини, Кристина Эпплгейт, Кэтрин О’Хара, Джош Цуккерман, Билл Мэйси, Дженнифер Моррисон, Удо Кир, Дэвид Селби, Стефани Фэраси
Описание: Опостылевшая рутинная жизнь богача Дрю Лэтама приводит его на Рождество в пригородный дом своего детства. И даже тот факт, что дом заселён теперь другими людьми, не может испортить Дрю настроение. За солидное вознаграждение он предлагает семейке Валко на время стать его роднёй, и сам мечтает отметить праздник в их кругу. Вот только деньги кружат голову далеко не всем его новым родственникам, да и сами Валко, кажется, представляют собой редкую семейку психопатов...-
Сэмпл: скачать-Релиз от -
Автор рипа: Elheym
Качество: BDRip 1080p (источник: rutracker / BDRemux / 1080p)
Контейнер: MKV
Видео: 1916x1080 (1.77:1), 23.976 fps, MPEG-4 AVC, ~14200 kbps avg, 0.286 bit/pixel
Аудио #1: Русский: АС3, 5.1, 48 kHz, ~384 Кбит/с | Профессиональный (полное дублирование), R5 |
Аудио #2: Русский: АС3, 5.1, 48 kHz, ~448 Кбит/с | Профессиональный (двухголосый, закадровый), Tycoon |
Аудио #3: Русский: АС3, 5.1, 48 kHz, ~448 Кбит/с | Авторский (одноголосый, закадровый), Сергей Визгунов |
Аудио #4: Русский: DTS, 5.1, 48 kHz, ~1509 Кбит/с | Авторский (одноголосый, закадровый), Юрий Немахов |
Аудио #5: Украинский: АС3, 5.1, 48 kHz, ~448 Кбит/с | Профессиональный (двухголосый, закадровый), Новий канал |
Аудио #6: Английский: DTS, 5.1, 48 kHz, ~1509 Кбит/с | Оригинал |
Субтитры: Русский (Полные, R5), Украинский (Полные, urij546724 [Hurtom]) Английский (Полные SDH)
Главы: Присутствуют, сохранены оригинальные (Подписаны)
Размер: 12.0 GB

MediaInfo

Уникальный идентификатор : 222651973394956352780822105754620407158 (0xA78135D481646AB0B241AB0DACA42D76)
Полное имя : Surviving.Christmas.2004.1080p.BluRay.4xRus.Ukr.Eng.-HQCLUB.mkv
Формат : Matroska
Версия формата : Version 2
Размер файла : 12,0 Гбайт
Продолжительность : 1 ч. 30 м.
Общий поток : 18,9 Мбит/сек
Дата кодирования : UTC 2014-07-03 12:49:54
Программа кодирования : mkvmerge v5.2.0 ('I can't explain') built on Dec 18 2011 18:12:03
Библиотека кодирования : libebml v1.2.3 + libmatroska v1.3.0
Видео
Идентификатор : 1
Формат : AVC
Формат/Информация : Advanced Video Codec
Профиль формата : High@L4.1
Параметр CABAC формата : Да
Параметр ReFrames формата : 3 кадра
Идентификатор кодека : V_MPEG4/ISO/AVC
Продолжительность : 1 ч. 30 м.
Битрейт : 14,2 Мбит/сек
Ширина : 1916 пикселей
Высота : 1080 пикселей
Соотношение сторон : 16:9
Режим частоты кадров : Постоянный
Частота кадров : 23,976 кадра/сек
Цветовое пространство : YUV
Субдискретизация насыщенности : 4:2:0
Битовая глубина : 8 бит
Тип развёртки : Прогрессивная
Бит/(Пиксели*Кадры) : 0.286
Размер потока : 8,76 Гбайт (73%)
Заголовок : Пережить Рождество / Surviving Christmas (2004) BDRip 1080р by HQCLUB [Elheym]
Библиотека кодирования : x264 core 138 r2358 9e941d1
Настройки программы : cabac=1 / ref=4 / deblock=1:-3:-2 / analyse=0x3:0x113 / me=umh / subme=11 / psy=1 / psy_rd=1.00:0.00 / mixed_ref=1 / me_range=32 / chroma_me=1 / trellis=2 / 8x8dct=1 / cqm=0 / deadzone=21,11 / fast_pskip=1 / chroma_qp_offset=-4 / threads=6 / lookahead_threads=1 / sliced_threads=0 / nr=0 / decimate=0 / interlaced=0 / bluray_compat=0 / constrained_intra=0 / bframes=9 / b_pyramid=1 / b_adapt=2 / b_bias=0 / direct=3 / weightb=1 / open_gop=0 / weightp=2 / keyint=240 / keyint_min=23 / scenecut=40 / intra_refresh=0 / rc_lookahead=40 / rc=2pass / mbtree=1 / bitrate=14200 / ratetol=1.0 / qcomp=0.60 / qpmin=10 / qpmax=69 / qpstep=4 / cplxblur=20.0 / qblur=0.5 / vbv_maxrate=50000 / vbv_bufsize=62500 / nal_hrd=none / ip_ratio=1.40 / aq=1:1.00
Язык : English
Default : Да
Forced : Нет
Аудио #1
Идентификатор : 2
Формат : AC-3
Формат/Информация : Audio Coding 3
Расширение режима : CM (complete main)
Параметр Endianness формата : Big
Идентификатор кодека : A_AC3
Продолжительность : 1 ч. 30 м.
Вид битрейта : Постоянный
Битрейт : 384 Кбит/сек
Каналы : 6 каналов
Расположение каналов : Front: L C R, Side: L R, LFE
Частота : 48,0 КГц
Битовая глубина : 16 бит
Метод сжатия : С потерями
Размер потока : 249 Мбайт (2%)
Заголовок : АС3 5.1 @ 384 kbps - Dub
Язык : Russian
Default : Нет
Forced : Нет
Аудио #2
Идентификатор : 3
Формат : AC-3
Формат/Информация : Audio Coding 3
Расширение режима : CM (complete main)
Параметр Endianness формата : Big
Идентификатор кодека : A_AC3
Продолжительность : 1 ч. 30 м.
Вид битрейта : Постоянный
Битрейт : 448 Кбит/сек
Каналы : 6 каналов
Расположение каналов : Front: L C R, Side: L R, LFE
Частота : 48,0 КГц
Битовая глубина : 16 бит
Метод сжатия : С потерями
Размер потока : 291 Мбайт (2%)
Заголовок : АС3 5.1 @ 448 kbps - DVO, Tycoon
Язык : Russian
Default : Нет
Forced : Нет
Аудио #3
Идентификатор : 4
Формат : AC-3
Формат/Информация : Audio Coding 3
Расширение режима : CM (complete main)
Параметр Endianness формата : Big
Идентификатор кодека : A_AC3
Продолжительность : 1 ч. 30 м.
Вид битрейта : Постоянный
Битрейт : 448 Кбит/сек
Каналы : 6 каналов
Расположение каналов : Front: L C R, Side: L R, LFE
Частота : 48,0 КГц
Битовая глубина : 16 бит
Метод сжатия : С потерями
Размер потока : 291 Мбайт (2%)
Заголовок : АС3 5.1 @ 448 kbps - AVO, Vizgunov
Язык : Russian
Default : Нет
Forced : Нет
Аудио #4
Идентификатор : 5
Формат : DTS
Формат/Информация : Digital Theater Systems
Режим : 16
Параметр Endianness формата : Big
Идентификатор кодека : A_DTS
Продолжительность : 1 ч. 30 м.
Вид битрейта : Постоянный
Битрейт : 1509 Кбит/сек
Каналы : 6 каналов
Расположение каналов : Front: L C R, Side: L R, LFE
Частота : 48,0 КГц
Битовая глубина : 24 бит
Метод сжатия : С потерями
Размер потока : 979 Мбайт (8%)
Заголовок : DTS 5.1 @ 1509 kbps - AVO, Nemahov
Язык : Russian
Default : Нет
Forced : Нет
Аудио #5
Идентификатор : 6
Формат : AC-3
Формат/Информация : Audio Coding 3
Расширение режима : CM (complete main)
Параметр Endianness формата : Big
Идентификатор кодека : A_AC3
Продолжительность : 1 ч. 30 м.
Вид битрейта : Постоянный
Битрейт : 448 Кбит/сек
Каналы : 6 каналов
Расположение каналов : Front: L C R, Side: L R, LFE
Частота : 48,0 КГц
Битовая глубина : 16 бит
Метод сжатия : С потерями
Размер потока : 291 Мбайт (2%)
Заголовок : АС3 5.1 @ 448 kbps - DVO, Novij kanal
Язык : Ukrainian
Default : Нет
Forced : Нет
Аудио #6
Идентификатор : 7
Формат : DTS
Формат/Информация : Digital Theater Systems
Режим : 16
Параметр Endianness формата : Big
Идентификатор кодека : A_DTS
Продолжительность : 1 ч. 30 м.
Вид битрейта : Постоянный
Битрейт : 1509 Кбит/сек
Каналы : 6 каналов
Расположение каналов : Front: L C R, Side: L R, LFE
Частота : 48,0 КГц
Битовая глубина : 24 бит
Метод сжатия : С потерями
Размер потока : 979 Мбайт (8%)
Заголовок : DTS 5.1 @ 1509 kbps - Original
Язык : English
Default : Нет
Forced : Нет
Текст #1
Идентификатор : 8
Формат : UTF-8
Идентификатор кодека : S_TEXT/UTF8
Идентификатор кодека/Информация : UTF-8 Plain Text
Заголовок : Full, R5
Язык : Russian
Default : Нет
Forced : Нет
Текст #2
Идентификатор : 9
Формат : UTF-8
Идентификатор кодека : S_TEXT/UTF8
Идентификатор кодека/Информация : UTF-8 Plain Text
Заголовок : Full, urij546724 [Hurtom]
Язык : Ukrainian
Default : Нет
Forced : Нет
Текст #3
Идентификатор : 10
Формат : UTF-8
Идентификатор кодека : S_TEXT/UTF8
Идентификатор кодека/Информация : UTF-8 Plain Text
Заголовок : Full SDH
Язык : English
Default : Нет
Forced : Нет
Меню
00:00:00.000 : en:Chapter 01. Christmas in the City
00:02:39.576 : en:Chapter 02. A Lonely Christmas
00:08:43.356 : en:Chapter 03. Drew's Grievances
00:13:43.113 : en:Chapter 04. My Childhood Home
00:17:23.292 : en:Chapter 05. The Christmas Contract
00:19:53.817 : en:Chapter 06. Make Yourself at Home
00:23:01.213 : en:Chapter 07. Tree Shopping
00:27:38.156 : en:Chapter 08. Good Times in the Snow
00:29:22.510 : en:Chapter 09. Role-Playing
00:34:19.807 : en:Chapter 10. A Great Day for Shopping
00:36:40.907 : en:Chapter 11. Problems in the Family
00:43:41.618 : en:Chapter 12. Risking Permanent Paralysis
00:47:03.654 : en:Chapter 13. Tender Moments
00:50:31.445 : en:Chapter 14. Yuletide Glee
00:52:46.580 : en:Chapter 15. The Ice Palace
00:56:19.834 : en:Chapter 16. Girl Trouble
01:00:04.726 : en:Chapter 17. Getting Acquainted
01:05:16.871 : en:Chapter 18. Sis Is Home!
01:08:14.840 : en:Chapter 19. Incestuous Overtones
01:11:51.265 : en:Chapter 20. Drew Comes Clean
01:15:45.123 : en:Chapter 21. An Unexpected Visitor
01:18:35.252 : en:Chapter 22. Everybody Get Together
01:21:40.061 : en:Chapter 23. A True Holiday Ending
01:25:06.309 : en:Chapter 24. Credits
01:30:42.687 : en:Chapter 25.

x264 log

x264 [info]: frame I:842 Avg QP:15.91 size:215064
x264 [info]: frame P:25942 Avg QP:18.22 size:118766
x264 [info]: frame B:103716 Avg QP:19.94 size: 61637
x264 [info]: consecutive B-frames: 1.3% 2.2% 4.1% 22.4% 15.7% 25.2% 12.3% 14.8% 1.7% 0.4%
x264 [info]: ref P L0: 61.8% 11.2% 26.2% 0.7% 0.0%
x264 [info]: ref B L0: 90.1% 9.9%
x264 [info]: ref B L1: 92.4% 7.6%

Скриншоты


_________________
Показать сообщения:    

Текущее время: Сегодня 09:41

Часовой пояс: GMT



Вы не можете начинать темы
Вы не можете отвечать на сообщения
Вы не можете редактировать свои сообщения
Вы не можете удалять свои сообщения
Вы не можете голосовать в опросах
Вы не можете прикреплять файлы к сообщениям
Вы не можете скачивать файлы