Важное объявление!
У Нас Все раздачи мультитрекерные, при нуле пиров в релизах, можете смело вставать на закачку!
 
Автор Сообщение

HUNTER

Стаж:
4 года 4 месяца
Сообщений:
56839

Репутация: 101

[+] [-]
Вне форума [Профиль] [ЛС]

Перед классом / Front of the Class
Страна: США
Жанр: драма
Год выпуска: 2008
Продолжительность: 01:35:55
Перевод: Любительский (одноголосый закадровый) Вячеслав Прошин
Cубтитры: русские, английские
Оригинальная аудиодорожка: английский
Режиссер: Питер Уэрнер
В ролях: Джеймс Волк, Трит Уильямс, Доминик Скотт Кэй, Сара Дрю, Кэтлин Йорк, Джо Крест, Патриция Хитон, Джонни Пакар, Чарльз Генри Висон, Чарли Финн
Описание: С шести лет Брэд страдает синдромом Туретта. Его симптомы — частые моторные и вокальные тики, которые невозможно подавить. Тем не менее, Брэд бросает вызов всем барьерам и неприятностям, и даже двадцать четыре отказа подряд не останавливают его на пути к своей мечте — стать учителем.
Сэмпл: http://multi-up.com/1117206
Тип релиза: HDTVRip 720p
Контейнер: MKV
Видео: V_MPEG4, 23.976fps, 1280х720, 6011kbps
Аудио #1: AC3, 48000Hz, 192kbps, 2ch VO
Аудио #2: AC3, 48000Hz, 384kbps, 6ch ENG
Субтитры #1: softsub (SRT) RUS
Субтитры #2: softsub (SRT) ENG

MediaInfo

General
Unique ID : 187108201934260960502927903288392832452 (0x8CC3BA98D58D9435842CE2CF2CAA55C4)
Complete name : E:\[2008] Front of the Class.mkv
Format : Matroska
Format version : Version 1
File size : 4.50 GiB
Duration : 1h 35mn
Overall bit rate : 6 721 Kbps
Encoded date : UTC 2016-09-08 14:59:19
Writing application : mkvmerge v2.1.0 ('Another Place To Fall') built on Aug 19 2007 13:40:07
Writing library : libebml v0.7.7 + libmatroska v0.8.1
Video
ID : 1
Format : AVC
Format/Info : Advanced Video Codec
Format profile : High@L4.1
Format settings, CABAC : Yes
Format settings, ReFrames : 5 frames
Codec ID : V_MPEG4/ISO/AVC
Duration : 1h 35mn
Bit rate : 6 011 Kbps
Width : 1 280 pixels
Height : 720 pixels
Display aspect ratio : 16:9
Frame rate mode : Constant
Frame rate : 23.976 (24000/1001) fps
Standard : Component
Color space : YUV
Chroma subsampling : 4:2:0
Bit depth : 8 bits
Scan type : Progressive
Bits/(Pixel*Frame) : 0.272
Stream size : 4.03 GiB (89%)
Title : Release by fozzy412
Language : English
Default : Yes
Forced : No
Color range : Limited
Color primaries : BT.709
Transfer characteristics : BT.709
Matrix coefficients : BT.709
Audio #1
ID : 2
Format : AC-3
Format/Info : Audio Coding 3
Mode extension : CM (complete main)
Format settings, Endianness : Big
Codec ID : A_AC3
Duration : 1h 35mn
Bit rate mode : Constant
Bit rate : 192 Kbps
Channel(s) : 2 channels
Channel positions : Front: L R
Sampling rate : 48.0 KHz
Frame rate : 31.250 fps (1536 spf)
Compression mode : Lossy
Stream size : 132 MiB (3%)
Title : VO Вячеслав Прошин
Language : Russian
Default : Yes
Forced : No
Audio #2
ID : 3
Format : AC-3
Format/Info : Audio Coding 3
Mode extension : CM (complete main)
Format settings, Endianness : Big
Codec ID : A_AC3
Duration : 1h 35mn
Bit rate mode : Constant
Bit rate : 384 Kbps
Channel(s) : 6 channels
Channel positions : Front: L C R, Side: L R, LFE
Sampling rate : 48.0 KHz
Frame rate : 31.250 fps (1536 spf)
Compression mode : Lossy
Stream size : 263 MiB (6%)
Title : Original
Language : English
Default : No
Forced : No
Text #1
ID : 4
Format : UTF-8
Codec ID : S_TEXT/UTF8
Codec ID/Info : UTF-8 Plain Text
Title : Русские
Language : Russian
Default : No
Forced : No
Text #2
ID : 5
Format : UTF-8
Codec ID : S_TEXT/UTF8
Codec ID/Info : UTF-8 Plain Text
Title : English
Language : English
Default : No
Forced : No

Скриншоты


_________________
Показать сообщения:    

Текущее время: Сегодня 23:24

Часовой пояс: GMT



Вы не можете начинать темы
Вы не можете отвечать на сообщения
Вы не можете редактировать свои сообщения
Вы не можете удалять свои сообщения
Вы не можете голосовать в опросах
Вы не можете прикреплять файлы к сообщениям
Вы не можете скачивать файлы