Важное объявление!
У Нас Все раздачи мультитрекерные, при нуле пиров в релизах, можете смело вставать на закачку!
 
Автор Сообщение

HUNTER

Стаж:
4 года 4 месяца
Сообщений:
56822

Репутация: 101

[+] [-]
Вне форума [Профиль] [ЛС]

Переводчик с собачьего - Сесар спешит на помощь / Cesar To The Rescue
Дата/Год выпуска: 2013
Страна: США, студия: Cesar's Way. Inc
Жанр: Познавательный фильм, дрессировка собак
Продолжительность: 4 х ~00:43:30
Перевод: Студийный (одноголосый закадровый)
Доп. инфо о переводе: студия "Велес"
Русские субтитры: нет
Режиссер: Сесар Миллан, Давид Липсон / Cesar Millan, David Leepson
Телеканал: NAT GEO WILD HD
Описание: Сесар Миллан возвращается в свою стихию — к реабилитации собак и обучению людей.
Каждую неделю он будет навещать место, где отчаянно нуждаются в его помощи.
Избалованная ли чи-хуа-хуа выходит из-под контроля, мешая семейному бизнесу, или агрессивный пёс наводит страх на окрестности, Сесар использует свой профессионализм, чтобы принести гармонию в отношения между собаками и людьми.
В каждой серии по 2 эпизода.
Доп. информация: Ограничение по возрасту: от 12 лет
Сэмпл: https://www.sendspace.com/file/j63kg8
качество: TVRip
формат: AVI
Видео: XviD, 720х400 (16:9), ~1000 Кбит/сек, 25,0 кадров/сек, 0.139 Бит/(Пиксели*Кадры)
Аудио: MP3, 128 Кбит/сек, 48,0 КГц, 2 канала

Список выпусков/серий

01 серия. Сесар спешит на помощь - Семейная вражда.
Собака Алисы по кличке Мисти нападает на её родных, терроризирует соседей и отпугивает друзей. Питомцы брата и сестры постоянно дерутся.
02 серия. Сесар спешит на помощь - Псы босса.
Невоспитанные собаки породы бишон-фризе хозяина ресторана сводят с ума его работников, а один лабрадор мешает работе фонда "Писатели за свободу".
03 серия. Сесар спешит на помощь - Собачьи бои.
Джош вызывает Сесара помочь разобраться с двумя соседскими боксерами, которые постоянно нападают на его собаку.
04 серия. Сесар спешит на помощь - Игра в нападении.
К Сесару обращается тренер футбольной команды и просит его помочь воспитать агрессивного ротвейлера, принадлежащего одному из его лучших игроков.

MediaInfo

ОбщееПолное имя : C:\фильмы\02 возможно для раздачи\Переводчик с собачьего (фильмы 2013г)\Сесар спешит на помощь 2013г\сесар 1.aviФормат : AVIФормат/Информация : Audio Video InterleaveРазмер файла : 356 МбайтПродолжительность : 43 м.Общий поток : 1138 Кбит/сек
ВидеоИдентификатор : 0Формат : MPEG-4 VisualПрофиль формата : Advanced Simple@L4Параметр BVOP формата : НетПараметр QPel формата : НетПараметр GMC формата : Без точки переходаПараметр матрицы формата : Default (H.263)Идентификатор кодека : XVIDИдентификатор кодека/Подсказка : XviDПродолжительность : 43 м.Битрейт : 1000 Кбит/секШирина : 720 пикселейВысота : 400 пикселейСоотношение сторон : 16:9Частота кадров : 25,000 кадров/секЦветовое пространство : YUVСубдискретизация насыщенности : 4:2:0Битовая глубина : 8 битТип развёртки : ПрогрессивнаяМетод сжатия : С потерямиБит/(Пиксели*Кадры) : 0.139Размер потока : 313 Мбайт (88%)
АудиоИдентификатор : 1Формат : MPEG AudioВерсия формата : Version 1Профиль формата : Layer 3Идентификатор кодека : 55Идентификатор кодека/Подсказка : MP3Продолжительность : 43 м.Продолжительность оригинала : 43 м.Вид битрейта : ПостоянныйБитрейт : 128 Кбит/секКаналы : 2 каналаЧастота : 48,0 КГцМетод сжатия : С потерямиРазмер потока : 40,0 Мбайт (11%)Выравнивание : Соединение по промежуткамПродолжительность промежутка : 40 мс. (1,00 видеокадр)Библиотека кодирования : LAME3.98.2
ОбщееПолное имя : C:\фильмы\02 возможно для раздачи\Переводчик с собачьего (фильмы 2013г)\Сесар спешит на помощь 2013г\сесар 2.aviФормат : AVIФормат/Информация : Audio Video InterleaveРазмер файла : 353 МбайтПродолжительность : 43 м.Общий поток : 1138 Кбит/сек
ВидеоИдентификатор : 0Формат : MPEG-4 VisualПрофиль формата : Advanced Simple@L4Параметр BVOP формата : НетПараметр QPel формата : НетПараметр GMC формата : Без точки переходаПараметр матрицы формата : Default (H.263)Идентификатор кодека : XVIDИдентификатор кодека/Подсказка : XviDПродолжительность : 43 м.Битрейт : 1001 Кбит/секШирина : 720 пикселейВысота : 400 пикселейСоотношение сторон : 16:9Частота кадров : 25,000 кадров/секЦветовое пространство : YUVСубдискретизация насыщенности : 4:2:0Битовая глубина : 8 битТип развёртки : ПрогрессивнаяМетод сжатия : С потерямиБит/(Пиксели*Кадры) : 0.139Размер потока : 311 Мбайт (88%)
АудиоИдентификатор : 1Формат : MPEG AudioВерсия формата : Version 1Профиль формата : Layer 3Идентификатор кодека : 55Идентификатор кодека/Подсказка : MP3Продолжительность : 43 м.Продолжительность оригинала : 43 м.Вид битрейта : ПостоянныйБитрейт : 128 Кбит/секКаналы : 2 каналаЧастота : 48,0 КГцМетод сжатия : С потерямиРазмер потока : 39,7 Мбайт (11%)Выравнивание : Соединение по промежуткамПродолжительность промежутка : 40 мс. (1,00 видеокадр)
ОбщееПолное имя : C:\фильмы\02 возможно для раздачи\Переводчик с собачьего (фильмы 2013г)\Сесар спешит на помощь 2013г\сесар 3.aviФормат : AVIФормат/Информация : Audio Video InterleaveРазмер файла : 354 МбайтПродолжительность : 43 м.Общий поток : 1138 Кбит/сек
ВидеоИдентификатор : 0Формат : MPEG-4 VisualПрофиль формата : Advanced Simple@L4Параметр BVOP формата : НетПараметр QPel формата : НетПараметр GMC формата : Без точки переходаПараметр матрицы формата : Default (H.263)Идентификатор кодека : XVIDИдентификатор кодека/Подсказка : XviDПродолжительность : 43 м.Битрейт : 1000 Кбит/секШирина : 720 пикселейВысота : 400 пикселейСоотношение сторон : 16:9Частота кадров : 25,000 кадров/секЦветовое пространство : YUVСубдискретизация насыщенности : 4:2:0Битовая глубина : 8 битТип развёртки : ПрогрессивнаяМетод сжатия : С потерямиБит/(Пиксели*Кадры) : 0.139Размер потока : 311 Мбайт (88%)
АудиоИдентификатор : 1Формат : MPEG AudioВерсия формата : Version 1Профиль формата : Layer 3Идентификатор кодека : 55Идентификатор кодека/Подсказка : MP3Продолжительность : 43 м.Продолжительность оригинала : 43 м.Вид битрейта : ПостоянныйБитрейт : 128 Кбит/секКаналы : 2 каналаЧастота : 48,0 КГцМетод сжатия : С потерямиРазмер потока : 39,9 Мбайт (11%)Выравнивание : Соединение по промежуткамПродолжительность промежутка : 40 мс. (1,00 видеокадр)
ОбщееПолное имя : C:\фильмы\02 возможно для раздачи\Переводчик с собачьего (фильмы 2013г)\Сесар спешит на помощь 2013г\сесар 4.aviФормат : AVIФормат/Информация : Audio Video InterleaveРазмер файла : 354 МбайтПродолжительность : 43 м.Общий поток : 1141 Кбит/сек
ВидеоИдентификатор : 0Формат : MPEG-4 VisualПрофиль формата : Advanced Simple@L4Параметр BVOP формата : НетПараметр QPel формата : НетПараметр GMC формата : Без точки переходаПараметр матрицы формата : Default (H.263)Идентификатор кодека : XVIDИдентификатор кодека/Подсказка : XviDПродолжительность : 43 м.Битрейт : 1000 Кбит/секШирина : 720 пикселейВысота : 400 пикселейСоотношение сторон : 16:9Частота кадров : 25,000 кадров/секЦветовое пространство : YUVСубдискретизация насыщенности : 4:2:0Битовая глубина : 8 битТип развёртки : ПрогрессивнаяМетод сжатия : С потерямиБит/(Пиксели*Кадры) : 0.139Размер потока : 310 Мбайт (88%)
АудиоИдентификатор : 1Формат : MPEG AudioВерсия формата : Version 1Профиль формата : Layer 3Идентификатор кодека : 55Идентификатор кодека/Подсказка : MP3Продолжительность : 43 м.Вид битрейта : ПостоянныйБитрейт : 128 Кбит/секКаналы : 2 каналаЧастота : 48,0 КГцМетод сжатия : С потерямиРазмер потока : 39,7 Мбайт (11%)Выравнивание : Разделение по промежуткамПродолжительность промежутка : 24 мс. (0,60 видеокадр)

Скриншоты


Скриншот названия фильма

Скриншот года выпуска

форум "фильмы о собаках и волках"

http://rutracker.org/forum/viewtopic.php?t=1144862

Предыдущие или аналогичные раздачи

сейчас остался только 7 сезон "переводчик с собачьего" http://rutracker.org/forum/viewtopic.php?t=3689717
раньше были все сезоны

источник рипа

телепередача

_________________
Показать сообщения:    

Текущее время: Сегодня 03:42

Часовой пояс: GMT



Вы не можете начинать темы
Вы не можете отвечать на сообщения
Вы не можете редактировать свои сообщения
Вы не можете удалять свои сообщения
Вы не можете голосовать в опросах
Вы не можете прикреплять файлы к сообщениям
Вы не можете скачивать файлы