Важное объявление!
У Нас Все раздачи мультитрекерные, при нуле пиров в релизах, можете смело вставать на закачку!
 
Автор Сообщение

HUNTER

Стаж:
4 года 4 месяца
Сообщений:
56822

Репутация: 101

[+] [-]
Вне форума [Профиль] [ЛС]

Пентхаус / The Penthouse-
Страна: США
Жанр: комедия, драма ()
Год выпуска: 2010
Продолжительность: 01:29:11
Перевод 1: Профессиональный (двухголосый закадровый)
Перевод 2: Профессиональный (многоголосый закадровый) ТНТ
Cубтитры: английские
Оригинальная аудиодорожка: английский-Режиссер: Кристофер Левиту / Christopher Levitus
В ролях: Райдер Стронг, Кори Лардж, Эйприл Скотт, Джеймс ДеБелло, Кейли Куоко, Миа Хэррисон, Никки Гриффин, Локлин Манро, Джимми Жан-Луи, Джон Абрахамс и др.-Описание: Парень по имени Тайлер выигрывает в популярном телешоу, и в качестве приза получает огромный пентхаус. Он незамедлительно предлагает двум своим закадычным друзьям перебраться к нему. Ребята не могли и представить, что им предстоит столкнуться с большими проблемами, когда один их друзей решит пригласить жить свою подружку, а младшая сестренка одного из них преподнесет ему небольшой сюрприз…- -Качество видео: WEB-DL
Формат видео: MKV
Видео: AVC, 1280x720, 4101 kbps, 23.976 fps, 0.186 bpf
Аудио 1: AC3, 448 kbps, 5.1 channels, 48000 Hz - DVO
Аудио 2: AC3, 192 kbps, 2.0 channels, 48000 Hz - MVO
Аудио 3: AC3, 384 kbps, 5.1 channels, 48000 Hz - ENG-Доп. информация: Вторая дорожка отсюда, спасибо Diablo
Diablo писал(а):
Цитата:

запись звука с телеканала ТНТ - fatchoi
тнт вырезали небольшую сцену, в нее вставлен любит перевод 00:15:50-00:17:52
Любительскую вставку заменил на DVO, которая в этой раздаче идет первой и по-умолчанию.
В сэмпле как раз этот момент со вставкой и показан.-

Скриншоты



Резервные скриншоты




-

MediaInfo

Format : Matroska
Format version : Version 4 / Version 2
File size : 3.26 GiB
Duration : 1h 29mn
Overall bit rate : 5 229 Kbps
Movie name : Пентхаус / The Penthouse (2010) WEB-DL 720p [RG Torrents.ru]
Encoded date : UTC 2015-08-07 16:18:28
Writing application : mkvmerge v7.8.0 ('River Man') 32bit built on Mar 27 2015 16:18:02
Writing library : libebml v1.3.1 + libmatroska v1.4.2
Cover : Yes
Video
ID : 1
Format : AVC
Format/Info : Advanced Video Codec
Format profile : High@L3.1
Format settings, CABAC : No
Format settings, ReFrames : 2 frames
Codec ID : V_MPEG4/ISO/AVC
Duration : 1h 29mn
Bit rate : 4 101 Kbps
Width : 1 280 pixels
Height : 720 pixels
Display aspect ratio : 16:9
Frame rate mode : Constant
Frame rate : 23.976 fps
Color space : YUV
Chroma subsampling : 4:2:0
Bit depth : 8 bits
Scan type : Progressive
Bits/(Pixel*Frame) : 0.186
Stream size : 2.55 GiB (78%)
Language : English
Default : Yes
Forced : No
Color primaries : BT.709
Transfer characteristics : BT.709
Matrix coefficients : BT.709
Audio #1
ID : 2
Format : AC-3
Format/Info : Audio Coding 3
Mode extension : CM (complete main)
Format settings, Endianness : Big
Codec ID : A_AC3
Duration : 1h 29mn
Bit rate mode : Constant
Bit rate : 448 Kbps
Channel(s) : 6 channels
Channel positions : Front: L C R, Side: L R, LFE
Sampling rate : 48.0 KHz
Bit depth : 16 bits
Compression mode : Lossy
Stream size : 286 MiB (9%)
Title : DVO
Language : Russian
Default : Yes
Forced : No
Audio #2
ID : 3
Format : AC-3
Format/Info : Audio Coding 3
Mode extension : CM (complete main)
Format settings, Endianness : Big
Codec ID : A_AC3
Duration : 1h 29mn
Bit rate mode : Constant
Bit rate : 192 Kbps
Channel(s) : 2 channels
Channel positions : Front: L R
Sampling rate : 48.0 KHz
Bit depth : 16 bits
Compression mode : Lossy
Stream size : 122 MiB (4%)
Title : MVO - TNT
Language : Russian
Default : No
Forced : No
Audio #3
ID : 4
Format : AC-3
Format/Info : Audio Coding 3
Mode extension : CM (complete main)
Format settings, Endianness : Big
Codec ID : A_AC3
Duration : 1h 29mn
Bit rate mode : Constant
Bit rate : 384 Kbps
Channel(s) : 6 channels
Channel positions : Front: L C R, Side: L R, LFE
Sampling rate : 48.0 KHz
Bit depth : 16 bits
Compression mode : Lossy
Stream size : 245 MiB (7%)
Language : English
Default : No
Forced : No
Text
ID : 5
Format : UTF-8
Codec ID : S_TEXT/UTF8
Codec ID/Info : UTF-8 Plain Text
Language : English
Default : No
Forced : No
Menu
00:00:00.000 : en:Fierce Competition
00:07:31.000 : en:Something To Tell You
00:16:04.000 : en:State Of Shock
00:24:32.000 : en:On MTV
00:32:06.000 : en:Smell What I'm Cookin'
00:39:42.000 : en:Dream Shower
00:46:40.000 : en:Tell Us About Yourself
00:53:13.000 : en:Gut Feeling
00:59:50.000 : en:Living Large
01:10:00.000 : en:Forgiveness
01:16:11.000 : en:Smart Reviewer
01:25:40.000 : en:End Credits

_________________
Показать сообщения:    

Текущее время: Сегодня 05:23

Часовой пояс: GMT



Вы не можете начинать темы
Вы не можете отвечать на сообщения
Вы не можете редактировать свои сообщения
Вы не можете удалять свои сообщения
Вы не можете голосовать в опросах
Вы не можете прикреплять файлы к сообщениям
Вы не можете скачивать файлы