Важное объявление!
У Нас Все раздачи мультитрекерные, при нуле пиров в релизах, можете смело вставать на закачку!
 
Автор Сообщение

HUNTER

Стаж:
4 года 4 месяца
Сообщений:
56749

Репутация: 101

[+] [-]
Вне форума [Профиль] [ЛС]

Паучья нора / Spiderhole
Страна: Ирландия
Студия: Spiderhole Productions
Жанр: ужасы
Год выпуска: 2010
Продолжительность: 01:18:33
Перевод: Любительский (двухголосый закадровый)
Cубтитры: нет
Оригинальная аудиодорожка: английский
Режиссер: Дэниэл Симпсон / Daniel Simpson
В ролях: Эми Ноубл, Эмма Гриффитс Малин, Джордж Магвайр, Джон Риган, Рубен-Генри Биггс, Мойя Фаррелли, Malcolm George, Кевин Ханнафин, Альфонсе Ланза, Джоэнн О’Салливан
Описание: Несколько молодых людей оказываются запертыми, словно беспомощные мухи, пойманные в сети паука, в большом доме, двери и окна которого плотно закрыты и забаррикадированы извне. Некто начинает смертельную охоту за героями…

Сэмпл: http://multi-up.com/1024603
Тип релиза: BDRemux 1080i
Контейнер: MKV
Видео: MPEG4 Video (H264) 1920x1080 25.000 fps 23666 kbps
Аудио: Русский AC-3 / 2 ch / 48.0 KHz / 192 Kbps
Аудио 2: Английский DTS-HD High-Res Audio 5.1 / 48 kHz / 2046 kbps / 16-bit (DTS Core: 5.1 / 48 kHz / 1509 kbps / 16-bit)

MediaInfo

General
Unique ID : 213273082998515348447111978841621049743 (0xA072E6D50408A3629880E353814AB18F)
Complete name : D:\Spiderhole.2010.Remux.mkv
Format : Matroska
Format version : Version 4 / Version 2
File size : 14.2 GiB
Duration : 1h 18mn
Overall bit rate mode : Variable
Overall bit rate : 25.9 Mbps
Encoded date : UTC 2014-12-30 07:13:02
Writing application : mkvmerge v7.4.0 ('Circles') 64bit built on Dec 12 2014 12:19:56
Writing library : libebml v1.3.0 + libmatroska v1.4.1
DURATION : 01:18:32.832000000
NUMBER_OF_FRAMES : 147276
NUMBER_OF_BYTES : 113107968
_STATISTICS_WRITING_APP : mkvmerge v7.4.0 ('Circles') 64bit built on Dec 12 2014 12:19:56
_STATISTICS_WRITING_DATE_UTC : 2014-12-30 07:13:02
_STATISTICS_TAGS : BPS DURATION NUMBER_OF_FRAMES NUMBER_OF_BYTES
Video
ID : 1
Format : AVC
Format/Info : Advanced Video Codec
Format profile : High@L4.1
Format settings, CABAC : Yes
Format settings, ReFrames : 4 frames
Codec ID : V_MPEG4/ISO/AVC
Duration : 1h 18mn
Bit rate mode : Variable
Bit rate : 23.2 Mbps
Maximum bit rate : 32.0 Mbps
Width : 1 920 pixels
Height : 1 080 pixels
Display aspect ratio : 16:9
Frame rate mode : Constant
Frame rate : 25.000 fps
Standard : PAL
Color space : YUV
Chroma subsampling : 4:2:0
Bit depth : 8 bits
Scan type : Interlaced
Scan order : Top Field First
Bits/(Pixel*Frame) : 0.447
Stream size : 12.7 GiB (89%)
Default : Yes
Forced : No
Color primaries : BT.709
Transfer characteristics : BT.709
Matrix coefficients : BT.709
Audio #1
ID : 2
Format : AC-3
Format/Info : Audio Coding 3
Mode extension : CM (complete main)
Format settings, Endianness : Big
Codec ID : A_AC3
Duration : 1h 18mn
Bit rate mode : Constant
Bit rate : 192 Kbps
Channel(s) : 2 channels
Channel positions : Front: L R
Sampling rate : 48.0 KHz
Bit depth : 16 bits
Compression mode : Lossy
Stream size : 108 MiB (1%)
Title : Русский
Language : Russian
Default : Yes
Forced : No
Audio #2
ID : 3
Format : DTS
Format/Info : Digital Theater Systems
Format profile : HRA / Core
Mode : 16
Format settings, Endianness : Big
Codec ID : A_DTS
Duration : 1h 18mn
Bit rate mode : Constant
Bit rate : 2 046 Kbps / 1 509 Kbps
Channel(s) : 6 channels
Channel positions : Front: L C R, Side: L R, LFE
Sampling rate : 48.0 KHz
Bit depth : 16 bits
Compression mode : Lossy
Stream size : 1.12 GiB (8%)
Title : Английский
Language : English
Default : No
Forced : No

Скриншоты


_________________
Показать сообщения:    

Текущее время: Сегодня 03:41

Часовой пояс: GMT



Вы не можете начинать темы
Вы не можете отвечать на сообщения
Вы не можете редактировать свои сообщения
Вы не можете удалять свои сообщения
Вы не можете голосовать в опросах
Вы не можете прикреплять файлы к сообщениям
Вы не можете скачивать файлы