Важное объявление!
У Нас Все раздачи мультитрекерные, при нуле пиров в релизах, можете смело вставать на закачку!
 
Автор Сообщение

HUNTER

Стаж:
4 года 4 месяца
Сообщений:
56765

Репутация: 101

[+] [-]
Вне форума [Профиль] [ЛС]

Пасхальный парад / Easter Parade
Страна: США
Студия: Metro-Goldwyn-Mayer (MGM)
Жанр: мюзикл, мелодрама
Год выпуска: 1948
Продолжительность: 01:43:22
Перевод: Профессиональный (многоголосый закадровый) ТК Домашний
Перевод 2: Профессиональный (многоголосый закадровый) Светла
Cубтитры: русские (только на песни), английские
Оригинальная аудиодорожка: английский
Режиссер: Чарльз Уолтерс / Charles Walters
В ролях: Джуди Гарлэнд, Фред Астер, Питер Лоуфорд, Энн Миллер, Джулс Маншин, Клинтон Сандберг, Ричард Биверс, Джун Гэйл, Сара Шэйн, Лола Олбрайт, Ширли Баллард, Джимми Бейтс, Хэл Белл, Маргарет Берт, Питер Чонг, Джимми Додд, Долорес Донлон, Гарри Фокс, Сиг Фролич, Рут Холл, Хэлена Хей, Шеп Хотон, Марджори Джексон, Патриция Джексон, Боб Джеллисон, Дорис Кемпер, Гэйл Лангфорд, Джои Лэнсинг, Нолан Лири, Джени Ле Гон, Фрэнк Майо, Харольд Миллер, Ховард М. Митчелл, Роберт Эмметт О’Коннор, Альберт Поллет, Энджи О. Пулис, Бобби Прист, Жан Ромер, Линн Ромер, Ральф Санфорд, Дик Симмонс, Ди Тернелл, Бени Венута, Патриция Уолкер
Описание: Дон Хьюз танцует дуэтом с Надин Хэйл, однако буквально накануне традиционного ежегодного пасхального шоу Надин объявляет, что начинает сольную карьеру. Дон не стал впадать в отчаянье и взял себе новую партнершу — Ханну Браун, чтобы через год показать вместе с ней свой новый танцевальный номер на пасхальном шоу. Их выступление произвело настоящий фурор и им предложили контракт от знаменитого шоу Зигфилда. Но Хьюз отказывается от чудесного предложения, потому что у Зигфилда танцует и Надин, с которой он не желает общаться, помня ее предательство. К тому же он, Хьюз, уже успел влюбиться в Ханну, хотя и старается не обнаруживать свои чувства… Ханна же убеждена, что Дон все еще любит Надин.
Sample
Тип релиза: BDRemux 1080p
Контейнер: MKV
Видео: MPEG4 AVC Video, H264, 1920x1080, 23,976 fps, 29937 Kbps
Аудио: Russian (AC3, 2 ch, 192 kbps, 16 bits, 48.0 KHz) - ТК Домашний
Аудио 2: Russian (AC3, 2 ch, 192 kbps, 16 bits, 48.0 KHz) - Светла
Аудио 3: English (DTS-HD MA, 1 ch, 1049 kbps, 24 bits, 48.0 KHz / DTS core: 1 ch, 768 kbps, 24 bits, 48.0 KHz) - оригинал
Аудио 4: English (AC3, 1 ch, 192 kbps, 16 bits, 48.0 KHz) - комментарии
Формат субтитров: softsub (SRT)

MediaInfo

General
Unique ID : 254808732296620549566670569593737147357 (0xBFB260737BD30850B137FB35D01973DD)
Complete name : L:\Easter Parade\Easter Parade 1948 BDRemux 1080p.mkv
Format : Matroska
Format version : Version 4 / Version 2
File size : 22.8 GiB
Duration : 1h 43mn
Overall bit rate mode : Variable
Overall bit rate : 31.6 Mbps
Encoded date : UTC 2014-10-04 10:52:26
Writing application : mkvmerge v6.1.0 ('Old Devil') built on Mar 2 2013 14:32:37
Writing library : libebml v1.3.0 + libmatroska v1.4.0
Video
ID : 1
Format : AVC
Format/Info : Advanced Video Codec
Format profile : High@L4.1
Format settings, CABAC : Yes
Format settings, ReFrames : 2 frames
Format settings, GOP : M=1, N=10
Codec ID : V_MPEG4/ISO/AVC
Duration : 1h 43mn
Bit rate mode : Variable
Width : 1 920 pixels
Height : 1 080 pixels
Display aspect ratio : 16:9
Frame rate mode : Constant
Frame rate : 23.976 fps
Color space : YUV
Chroma subsampling : 4:2:0
Bit depth : 8 bits
Scan type : Progressive
Language : English
Default : Yes
Forced : No
Audio #1
ID : 2
Format : AC-3
Format/Info : Audio Coding 3
Mode extension : CM (complete main)
Format settings, Endianness : Big
Codec ID : A_AC3
Duration : 1h 43mn
Bit rate mode : Constant
Bit rate : 192 Kbps
Channel count : 2 channels
Channel positions : Front: L R
Sampling rate : 48.0 KHz
Bit depth : 16 bits
Compression mode : Lossy
Stream size : 142 MiB (1%)
Title : Домашний
Language : Russian
Default : Yes
Forced : No
Audio #2
ID : 3
Format : AC-3
Format/Info : Audio Coding 3
Mode extension : CM (complete main)
Format settings, Endianness : Big
Codec ID : A_AC3
Duration : 1h 43mn
Bit rate mode : Constant
Bit rate : 192 Kbps
Channel count : 2 channels
Channel positions : Front: L R
Sampling rate : 48.0 KHz
Bit depth : 16 bits
Compression mode : Lossy
Stream size : 142 MiB (1%)
Title : Светла
Language : Russian
Default : No
Forced : No
Audio #3
ID : 4
Format : DTS
Format/Info : Digital Theater Systems
Format profile : MA / Core
Mode : 16
Format settings, Endianness : Big
Codec ID : A_DTS
Duration : 1h 43mn
Bit rate mode : Variable
Bit rate : Unknown / 768 Kbps
Channel count : 1 channel
Channel positions : Front: C
Sampling rate : 48.0 KHz
Bit depth : 24 bits
Compression mode : Lossless / Lossy
Language : English
Default : No
Forced : No
Audio #4
ID : 5
Format : AC-3
Format/Info : Audio Coding 3
Mode extension : CM (complete main)
Format settings, Endianness : Big
Codec ID : A_AC3
Duration : 1h 43mn
Bit rate mode : Constant
Bit rate : 192 Kbps
Channel count : 1 channel
Channel positions : Front: C
Sampling rate : 48.0 KHz
Bit depth : 16 bits
Compression mode : Lossy
Stream size : 142 MiB (1%)
Title : комментарии
Language : English
Default : No
Forced : No
Text #1
ID : 6
Format : UTF-8
Codec ID : S_TEXT/UTF8
Codec ID/Info : UTF-8 Plain Text
Language : Russian
Default : No
Forced : No
Text #2
ID : 7
Format : UTF-8
Codec ID : S_TEXT/UTF8
Codec ID/Info : UTF-8 Plain Text
Language : English
Default : No
Forced : No

Скриншоты


_________________
Показать сообщения:    

Текущее время: Сегодня 20:06

Часовой пояс: GMT



Вы не можете начинать темы
Вы не можете отвечать на сообщения
Вы не можете редактировать свои сообщения
Вы не можете удалять свои сообщения
Вы не можете голосовать в опросах
Вы не можете прикреплять файлы к сообщениям
Вы не можете скачивать файлы