Важное объявление!
У Нас Все раздачи мультитрекерные, при нуле пиров в релизах, можете смело вставать на закачку!
 
Автор Сообщение

HUNTER

Стаж:
4 года 4 месяца
Сообщений:
56790

Репутация: 101

[+] [-]
Вне форума [Профиль] [ЛС]

Пастырь 3D / Priest 3D--Год выпуска:2011
Страна:США
Жанр:Ужасы, фантастика, боевик
Продолжительность:01:27:25
Перевод:Профессиональный (дублированный)
Субтитры:нет--В ролях: Пол Беттани (Priest), Карл Урбан (Black Hat), Кэм Жиганде (Hicks), Мэгги Кью (Priestess), Лили Коллинз (Lucy Pace), Брэд Дуриф (Salesman), Стивен Мойер (Owen Pace), Кристофер Пламмер (Monsignor Orelas), Алан Дэйл (Monsignor Chamberlain), Медкен Эмик (Shannon Pace), Джейкоб Хопкинс (Boy), Дэйв Флорек (Crocker)
Режиссёр:Скотт Чарльз Стюарт-Описание:Сюжет основан на корейском комиксе Мин-Ву Хунга. Фильм рассказывает историю Айвана Айзакса, мятежного воина и служителя церкви, который однажды нарушив правила своей Церкви, вместе с шерифом отправился на охоту за вампирами, похитившими его племянницу.-Качество:BDrip
Формат:Mkv
Видео кодек: x264
Аудио кодек: AC3
Видео: AVC, PAL, 1920x1080p, 16:9, 7116 Kbps, 23.976 fps
Аудио:Русский, Дубляж, АС-3, 6 channels, 48.0 KHz, 448 Kbps--

MediaInfo

General
Format : Matroska
File size : 4.99 GiB
Duration : 1h 27mn
Overall bit rate : 8 174 Kbps
Encoded date : UTC 2011-08-04 11:26:12
Writing application : mkvmerge v4.4.0 ('Die Wiederkehr') сборка от Oct 31 2010 21:52:48
Writing library : libebml v1.0.0 + libmatroska v1.0.0
Video
ID : 1
Format : AVC
Format/Info : Advanced Video Codec
Format profile : [url=mailto:High@L4.0]High@L4.0[/url]
Format settings, CABAC : Yes
Format settings, ReFrames : 4 frames
Format settings, GOP : M=7, N=12
Codec ID : V_MPEG4/ISO/AVC
Duration : 1h 27mn
Bit rate : 7 116 Kbps
Width : 1 920 pixels
Height : 1 080 pixels
Display aspect ratio : 16:9
Frame rate : 23.976 fps
Color space : YUV
Chroma subsampling : 4:2:0
Bit depth : 8 bits
Scan type : Progressive
Bits/(Pixel*Frame) : 0.143
Stream size : 4.35 GiB (87%)
Title : Anaglyph Dubois by Boss-Master
Writing library : x264 core 115 r1995 c1e60b9
Encoding settings : cabac=1 / ref=4 / deblock=1:-2:-2 / analyse=0x3:0x113 / me=umh / subme=7 / psy=1 / psy_rd=1.00:0.15 / mixed_ref=1 / me_range=16 / chroma_me=1 / trellis=2 / 8x8dct=1 / cqm=0 / deadzone=21,11 / fast_pskip=1 / chroma_qp_offset=-3 / threads=6 / sliced_threads=0 / nr=0 / decimate=1 / interlaced=0 / bluray_compat=0 / constrained_intra=0 / bframes=6 / b_pyramid=0 / b_adapt=2 / b_bias=0 / direct=3 / weightb=1 / open_gop=0 / weightp=2 / keyint=250 / keyint_min=23 / scenecut=40 / intra_refresh=0 / rc_lookahead=40 / rc=crf / mbtree=1 / crf=18.0 / qcomp=0.60 / qpmin=10 / qpmax=69 / qpstep=4 / ip_ratio=1.40 / aq=1:1.00
Audio #1
ID : 2
Format : AC-3
Format/Info : Audio Coding 3
Mode extension : CM (complete main)
Codec ID : A_AC3
Duration : 1h 27mn
Bit rate mode : Constant
Bit rate : 448 Kbps
Channel(s) : 6 channels
Channel positions : Front: L C R, Side: L R, LFE
Sampling rate : 48.0 KHz
Bit depth : 16 bits
Compression mode : Lossy
Stream size : 280 MiB (5%)
Language : Russian
Audio #2
ID : 3
Format : AC-3
Format/Info : Audio Coding 3
Mode extension : CM (complete main)
Codec ID : A_AC3
Duration : 1h 27mn
Bit rate mode : Constant
Bit rate : 448 Kbps
Channel(s) : 6 channels
Channel positions : Front: L C R, Side: L R, LFE
Sampling rate : 48.0 KHz
Bit depth : 16 bits
Compression mode : Lossy
Stream size : 280 MiB (5%)
Language : English
-

Скриншоты



-

_________________
Показать сообщения:    

Текущее время: Сегодня 18:14

Часовой пояс: GMT



Вы не можете начинать темы
Вы не можете отвечать на сообщения
Вы не можете редактировать свои сообщения
Вы не можете удалять свои сообщения
Вы не можете голосовать в опросах
Вы не можете прикреплять файлы к сообщениям
Вы не можете скачивать файлы