Важное объявление!
У Нас Все раздачи мультитрекерные, при нуле пиров в релизах, можете смело вставать на закачку!
 
Автор Сообщение

HUNTER

Стаж:
4 года 4 месяца
Сообщений:
56842

Репутация: 101

[+] [-]
Вне форума [Профиль] [ЛС]

Партнеры по жизни / Life Partners
Страна: США
Студия: Haven Entertainment
Жанр: комедия
Год выпуска: 2014
Продолжительность: 01:32:42
Перевод: Профессиональный (многоголосый закадровый)
Cубтитры: английские
Оригинальная аудиодорожка: английский
Режиссер: Сузанна Фогель / Susanna Fogel
В ролях: Адам Броди, Лесли Мэдилл, Келли Джордан, Зи Джеймс, Грир Грэммер, Патрис Гиббс, Шэрон Фредриксон, Giselle DaMier, Келси Кук, Мэттью Кардаропле, Бет Довер, Эбби Эллиотт, Гиллиан Джейкобс, Розанна ДеСото, Симона Байли, Джон Форест, Монте Маркэм, Лейтон Мистер, Элизабет Хо, Леонэль Клод
Описание: Пэйдж с неопределенной ориентацией обещает своей подруге-лесбиянке Саше, что не выйдет замуж, пока не легализируют однополые браки. Но вскоре пожалеет о своем обещании, ведь ее парень Тим сделает ей предложение, а ее подруга-лесбиянка не задумывается о браке и только бездельничает.

Тип релиза: BDRip 720p
Контейнер: MKV
Видео: MPEG-4 AVC, 5195 Кбит/с, 1280x532, 23,976 fps
Аудио: Rus, AC3, 448 kb/s (6 ch), 48 kHz
Аудио 2: Eng, DTS, 1510 kb/s (6 ch), 48 kHz
Формат субтитров: softsub (SRT)

MediaInfo

Format : Matroska
Format version : Version 4 / Version 2
File size : 4.73 GiB
Duration : 1h 32mn
Overall bit rate : 7 297 Kbps
Movie name : Tonik
Encoded date : UTC 2015-02-17 04:58:17
Writing application : mkvmerge v7.1.0 ('Good Love') 64bit built on Jul 27 2014 13:06:55
Writing library : libebml v1.3.0 + libmatroska v1.4.1
_STATISTICS_WRITING_APP : mkvmerge v7.1.0 ('Good Love') 64bit built on Jul 27 2014 13:06:55
_STATISTICS_WRITING_DATE_UTC : 2015-02-17 04:58:17
_STATISTICS_TAGS : BPS DURATION NUMBER_OF_FRAMES NUMBER_OF_BYTES
DURATION : 01:32:42.720000000
NUMBER_OF_FRAMES : 173835
NUMBER_OF_BYTES : 311512320
Video
ID : 1
Format : AVC
Format/Info : Advanced Video Codec
Format profile : High@L4.1
Format settings, CABAC : Yes
Format settings, ReFrames : 12 frames
Codec ID : V_MPEG4/ISO/AVC
Duration : 1h 32mn
Bit rate : 5 195 Kbps
Width : 1 280 pixels
Height : 532 pixels
Display aspect ratio : 2.40:1
Frame rate mode : Constant
Frame rate : 23.976 fps
Color space : YUV
Chroma subsampling : 4:2:0
Bit depth : 8 bits
Scan type : Progressive
Bits/(Pixel*Frame) : 0.318
Stream size : 3.36 GiB (71%)
Writing library : x264 core 142 r2431+42 c69a006 tMod [8-bit@4:2:0 X86_64]
Encoding settings : cabac=1 / ref=12 / deblock=1:-3:-3 / analyse=0x3:0x113 / me=umh / subme=11 / psy=1 / fade_compensate=0.00 / psy_rd=1.00:0.00 / mixed_ref=1 / me_range=32 / chroma_me=1 / trellis=2 / 8x8dct=1 / cqm=0 / deadzone=21,11 / fast_pskip=0 / chroma_qp_offset=-4 / threads=6 / lookahead_threads=1 / sliced_threads=0 / nr=0 / decimate=0 / interlaced=0 / bluray_compat=0 / constrained_intra=0 / fgo=0 / bframes=6 / b_pyramid=2 / b_adapt=2 / b_bias=0 / direct=3 / weightb=1 / open_gop=0 / weightp=2 / keyint=250 / keyint_min=23 / scenecut=40 / intra_refresh=0 / rc_lookahead=60 / rc=crf / mbtree=0 / crf=15.0000 / qcomp=0.70 / qpmin=0:0:0 / qpmax=69:69:69 / qpstep=4 / vbv_maxrate=62500 / vbv_bufsize=78125 / crf_max=0.0 / nal_hrd=none / filler=0 / ip_ratio=1.30 / pb_ratio=1.30 / aq=4:0.80 / aq-sensitivity=10.00 / aq-factor=1.00:1.00:1.00 / aq2=0 / aq3=0
Language : English
Default : Yes
Forced : No
_STATISTICS_WRITING_APP : mkvmerge v7.1.0 ('Good Love') 64bit built on Jul 27 2014 13:06:55
_STATISTICS_WRITING_DATE_UTC : 2015-02-17 04:58:17
_STATISTICS_TAGS : BPS DURATION NUMBER_OF_FRAMES NUMBER_OF_BYTES
DURATION : 01:32:42.807000000
NUMBER_OF_FRAMES : 133374
NUMBER_OF_BYTES : 3711363765
Audio #1
ID : 2
Format : AC-3
Format/Info : Audio Coding 3
Mode extension : CM (complete main)
Format settings, Endianness : Big
Codec ID : A_AC3
Duration : 1h 32mn
Bit rate mode : Constant
Bit rate : 448 Kbps
Channel(s) : 6 channels
Channel positions : Front: L C R, Side: L R, LFE
Sampling rate : 48.0 KHz
Bit depth : 16 bits
Compression mode : Lossy
Stream size : 297 MiB (6%)
Language : Russian
Default : Yes
Forced : No
Audio #2
ID : 3
Format : DTS
Format/Info : Digital Theater Systems
Mode : 16
Format settings, Endianness : Big
Codec ID : A_DTS
Duration : 1h 32mn
Bit rate mode : Constant
Bit rate : 1 509 Kbps
Channel(s) : 6 channels
Channel positions : Front: L C R, Side: L R, LFE
Sampling rate : 48.0 KHz
Bit depth : 24 bits
Compression mode : Lossy
Stream size : 1 001 MiB (21%)
Language : English
Default : No
Forced : No
Text #1
ID : 4
Format : UTF-8
Codec ID : S_TEXT/UTF8
Codec ID/Info : UTF-8 Plain Text
Language : English
Default : No
Forced : No
Text #2
ID : 5
Format : UTF-8
Codec ID : S_TEXT/UTF8
Codec ID/Info : UTF-8 Plain Text
Title : SDH
Language : English
Default : No
Forced : No
Menu
00:00:00.000 : en:00:00:00.000
00:08:44.023 : en:00:08:44.023
00:16:22.732 : en:00:16:22.732
00:23:51.639 : en:00:23:51.639
00:33:13.408 : en:00:33:13.408
00:39:12.642 : en:00:39:12.642
00:50:35.741 : en:00:50:35.741
00:57:26.151 : en:00:57:26.151
01:03:10.954 : en:01:03:10.954
01:12:46.195 : en:01:12:46.195
01:19:45.781 : en:01:19:45.781
01:28:44.486 : en:01:28:44.486

Скриншоты


_________________
Показать сообщения:    

Текущее время: Сегодня 12:37

Часовой пояс: GMT



Вы не можете начинать темы
Вы не можете отвечать на сообщения
Вы не можете редактировать свои сообщения
Вы не можете удалять свои сообщения
Вы не можете голосовать в опросах
Вы не можете прикреплять файлы к сообщениям
Вы не можете скачивать файлы