Важное объявление!
У Нас Все раздачи мультитрекерные, при нуле пиров в релизах, можете смело вставать на закачку!
 
Автор Сообщение

HUNTER

Стаж:
4 года 4 месяца
Сообщений:
56749

Репутация: 101

[+] [-]
Вне форума [Профиль] [ЛС]

Паромщик / Barquero-
Страна: США
Студия: Aubrey Schenck Productions | United Artists
Жанр: вестерн
Год выпуска: 1970
Продолжительность: 01:44:47-Перевод 1: Профессиональный (двухголосый закадровый) НТВ+. Перевод Юрия Сербина. Текст читали Марина Бакина, Александр Воронов.
Перевод 2: Авторский (одноголосый закадровый) - Сергей Кузнецов
Cубтитры: нет
Оригинальная аудиодорожка: английский-Режиссер: Гордон Дуглас / Gordon Douglas
В ролях: Ли Ван Клиф, Уоррен Оутс, Форрест Таккер, Кервин Мэтьюз, Мэриетт Хартли...- | Релиз: -Описание: Маленький городок недалеко от границы с Мексикой переживает нападение бандитов-повстанцев. Захватив оружие, они продвигаются к границе, дабы уйти в Мексику и продолжить свою революционную борьбу. Как и все революционеры, они люди упёртые и не перед чем не останавливающиеся. Но натыкаются на одно малозначительное препятствие — паромщика «Баркуэро». Он никак не хочет разделить их революционные взгляды и отдать им свой паром. Другим способом переправиться через реку невозможно…-Доп. информация: Звуковые дорожки №2, 3 взяты с DVD (Спасибо AnryV aka Foots). Дорожки подогнаны к данному релизу без пережатия.-Семпл: http://sendfile.su/1138955-Тип релиза: HDTV 1080i
Контейнер: TS
Видео: 1920x1080i (16:9), 25.000 fps, AVC, ~6585 kbps, 0.127 bits/pixel
Аудио 1: Русский, 48.0 KHz, MPEG-1 Audio layer 2, 2 ch, 192 kbps | НТВ+
Аудио 2: Русский, 48.0 KHz, AC3, 2 ch, 192 kbps | Сергей Кузнецов
Аудио 3: English, 48.0 KHz, AC3, 2 ch, 224 kbps | DVD R2
Аудио 4: English, 48.0 KHz, MPEG-1 Audio layer 2, 2 ch, 192 kbps | MGM HD Broadcast

MediaInfo

GeneralID : 1 (0x1)Complete name : Barquero 1970 MGMHD 1080i.2xRus.2xEng.tsFormat : MPEG-TSFile size : 5.69 GiBDuration : 1h 44mnOverall bit rate mode : VariableOverall bit rate : 7 777 KbpsMaximum Overall bit rate : 35.5 Mbps
VideoID : 4113 (0x1011)Menu ID : 1 (0x1)Format : AVCFormat/Info : Advanced Video CodecFormat profile : Main@L4Format settings, CABAC : YesFormat settings, ReFrames : 4 framesCodec ID : 27Duration : 1h 44mnBit rate : 6 585 KbpsWidth : 1 920 pixelsHeight : 1 080 pixelsDisplay aspect ratio : 16:9Frame rate : 25.000 fpsStandard : ComponentColor space : YUVChroma subsampling : 4:2:0Bit depth : 8 bitsScan type : InterlacedScan order : Top Field FirstBits/(Pixel*Frame) : 0.127Stream size : 4.82 GiB (85%)Color range : LimitedColor primaries : BT.709Transfer characteristics : BT.709Matrix coefficients : BT.709
Audio #1ID : 4352 (0x1100)Menu ID : 1 (0x1)Format : MPEG AudioFormat version : Version 1Format profile : Layer 2Codec ID : 4Duration : 1h 44mnBit rate mode : ConstantBit rate : 192 KbpsChannel(s) : 2 channelsSampling rate : 48.0 KHzCompression mode : LossyStream size : 144 MiB (2%)Language : Russian
Audio #2ID : 4353 (0x1101)Menu ID : 1 (0x1)Format : AC-3Format/Info : Audio Coding 3Format profile : Dolby DigitalMode extension : CM (complete main)Format settings, Endianness : BigCodec ID : 129Duration : 1h 44mnBit rate mode : ConstantBit rate : 192 KbpsChannel(s) : 2 channelsChannel positions : Front: L RSampling rate : 48.0 KHzCompression mode : LossyStream size : 144 MiB (2%)Language : Russian
Audio #3ID : 4354 (0x1102)Menu ID : 1 (0x1)Format : AC-3Format/Info : Audio Coding 3Mode extension : CM (complete main)Format settings, Endianness : BigCodec ID : 129Duration : 1h 44mnBit rate mode : ConstantBit rate : 224 KbpsChannel(s) : 2 channelsChannel positions : Front: L RSampling rate : 48.0 KHzCompression mode : LossyStream size : 168 MiB (3%)Language : English
Audio #4ID : 4355 (0x1103)Menu ID : 1 (0x1)Format : MPEG AudioFormat version : Version 1Format profile : Layer 2Codec ID : 4Duration : 1h 44mnBit rate mode : ConstantBit rate : 192 KbpsChannel(s) : 2 channelsSampling rate : 48.0 KHzCompression mode : LossyStream size : 144 MiB (2%)Language : English

Скриншоты


_________________
Показать сообщения:    

Текущее время: Сегодня 00:31

Часовой пояс: GMT



Вы не можете начинать темы
Вы не можете отвечать на сообщения
Вы не можете редактировать свои сообщения
Вы не можете удалять свои сообщения
Вы не можете голосовать в опросах
Вы не можете прикреплять файлы к сообщениям
Вы не можете скачивать файлы