Важное объявление!
У Нас Все раздачи мультитрекерные, при нуле пиров в релизах, можете смело вставать на закачку!
Статистика раздачи
Размер:  1.95 GB   |    Зарегистрирован:  3 года 5 месяцев   |    Скачан:  0 раз    |   

Полного источника не было: 3 года 4 месяца

 
     
 
 
 
Автор Сообщение

димитри37

Стаж:
3 года 8 месяцев
Сообщений:
1237

Репутация: 127

[+] [-]
Вне форума [Профиль] [ЛС]

Пародайс. Выпуск 01 (09.06.2013)
Год выпуска: 2013
Страна: Россия
Жанр: Тв-шоу, юмор
Продолжительность: 00:45:43
Перевод: Не требуется
Русские субтитры: нет
Описание: Самые родные голоса России, самые похожие жесты, самые любимые темы. Как настоящие, только лучше. Пока эти парни на сцене, шоу-биз в серьезной опасности! Ведь им ничего не стоит спародировать любую знаменитость. Да так, что мама родная не отличит. Не веришь? Смотри сам! Лучшие пародисты страны собрались на телеканале ПЯТНИЦА! в проекте ПАРОДАЙС ШОУ. Как Алла Пугачева кроет шифером курятник, а Владимир Познер покупает в театральной кассе билеты в Париж? Что Ленин сделал с Ренатой Литвиновой и как пародисты разводят звезд по телефону? Шоу живых пародий ПАРОДАЙС ШОУ на телеканале ПЯТНИЦА! ПРЕМЬЕРА!
Доп. информация: Релиз -

Рип чистый. Без посторонних надписей. Выкладывается как есть.
Качество: DVB
Формат: MPG
Видео кодек: MPG2
Аудио кодек: MP2
Видео: 720x576 @ 768x576 (4:3) 25.00fps 5 810 Kbps, 0.560 bit/pixel
Аудио: MPEG Audio 48000Hz stereo 192 Кбит/сек

Скриншоты

Скринлист

MI

GeneralComplete name : D:\Выкладка\Пародайс. Выпуск 01 (09.06.2013) (2013, Тв-шоу, Юмор, DVB) (MYDIMKA).mpgFormat : MPEG-PSFile size : 1.95 GiBDuration : 45mn 42sOverall bit rate mode : VariableOverall bit rate : 6 120 Kbps
VideoID : 224 (0xE0)Format : MPEG VideoFormat version : Version 2Format profile : Main@MainFormat settings, BVOP : YesFormat settings, Matrix : CustomFormat settings, GOP : M=3, N=24Duration : 45mn 42sBit rate mode : VariableBit rate : 5 807 KbpsMaximum bit rate : 15.0 MbpsWidth : 720 pixelsHeight : 576 pixelsDisplay aspect ratio : 4:3Frame rate : 25.000 fpsStandard : PALColor space : YUVChroma subsampling : 4:2:0Bit depth : 8 bitsScan type : InterlacedScan order : Top Field FirstCompression mode : LossyBits/(Pixel*Frame) : 0.560Time code of first frame : 00:00:00:00Time code source : Group of pictures headerStream size : 1.85 GiB (95%)
AudioID : 192 (0xC0)Format : MPEG AudioFormat version : Version 1Format profile : Layer 2Duration : 45mn 42sBit rate mode : ConstantBit rate : 192 KbpsChannel(s) : 2 channelsSampling rate : 48.0 KHzCompression mode : LossyDelay relative to video : 4msStream size : 62.8 MiB (3%)
-
[iv-torrents.ru].t3880.torrent 
Торрент: Зарегистрирован   [ 2013-06-09 22:30 ]

Скачать .torrent

Скачать

20 KB

Статус: проверено
Скачан торрент файл: 303
Размер: 1.95 GB  ·  Тип торрента
Оценка релиза:  Средний балл: 0.0 (0 голосов, вы еще не оценили этот релиз)
Поблагодарили: Спасибо
 
Похожие темы

Пожертвовать руб.
Показать сообщения:    

Текущее время: Сегодня 23:36

Часовой пояс: GMT



Вы не можете начинать темы
Вы не можете отвечать на сообщения
Вы не можете редактировать свои сообщения
Вы не можете удалять свои сообщения
Вы не можете голосовать в опросах
Вы не можете прикреплять файлы к сообщениям
Вы можете скачивать файлы