Важное объявление!
У Нас Все раздачи мультитрекерные, при нуле пиров в релизах, можете смело вставать на закачку!
 
Автор Сообщение

HUNTER

Стаж:
4 года 4 месяца
Сообщений:
56848

Репутация: 101

[+] [-]
Вне форума [Профиль] [ЛС]

Парни побоку / Boys on the Side
Страна: США, Франция
Жанр: драма, комедия
Год выпуска: 1995
Продолжительность: 01:56:58
Перевод 1: Профессиональный (многоголосый закадровый) ОРТ
Перевод 2: Авторский (одноголосый закадровый) Андрей Гаврилов
Перевод 3: Авторский (одноголосый закадровый) Василий Горчаков
Cубтитры: английские
Оригинальная аудиодорожка: английский
Режиссер: Херберт Росс / Herbert Ross
В ролях: Вупи Голдберг, Мэри-Луиз Паркер, Дрю Бэрримор, Мэттью МакКонахи, Джеймс Римар, Билли Уэрт, Анита Джиллет, Деннис Буцикарис, Эстелл Парсонс, Эми Акино...
Описание: В картине три женщины, у каждой из которых есть серьезная проблема, по воле случая путешествуют вместе. Одна из них — Робин — недавно узнала о том, что ВИЧ-положительна. Фильм показывает историю человеческих взаимоотношений, любви и дружбы, а также физические и психологические сложности, с которыми приходится сталкиваться смертельно больному человеку.
Доп. информация: Перевод ОРТ с раздачи JUSTKANT оцифровал Sp1end1d. Переводы Гаврилова, Горчакова с раздачи njntynfu3. Синхронизация переводов - Dreven.
Сэмпл: http://multi-up.com/1058319
Тип релиза: WEB-DL 720p
Контейнер: MKV
Видео: 1280x534 (2.40:1), 23.976 fps, AVC, ~4143 Kbps, 0.253 bits/pixel
Аудио 1: Russian, 48.0 KHz, AC3, 2 ch, 192 Kbps - ОРТ
Аудио 2: Russian, 48.0 KHz, AC3, 2 ch, 192 Kbps - Андрей Гаврилов
Аудио 3: Russian, 48.0 KHz, AC3, 2 ch, 192 Kbps - Василий Горчаков
Аудио 4: English, 48.0 KHz, AC3, 6 ch, 384 Kbps

MediaInfo

General
Unique ID : 249340823117232954641217058649917074936 (0xBB954BB6ECCCE0FAB93600029D5FADF8)
Complete name : D:\Boys On the Side. WEB-DL 720p.mkv
Format : Matroska
Format version : Version 4 / Version 2
File size : 4.25 GiB
Duration : 1h 56mn
Overall bit rate : 5 206 Kbps
Movie name :
Encoded date : UTC 2015-07-02 10:56:02
Writing application : mkvmerge v8.1.0 ('Psychedelic Postcard') 64bit
Writing library : libebml v1.3.1 + libmatroska v1.4.2
DURATION : 01:56:58.016000000
NUMBER_OF_FRAMES : 219313
NUMBER_OF_BYTES : 168432384
_STATISTICS_WRITING_APP : mkvmerge v8.1.0 ('Psychedelic Postcard') 64bit
_STATISTICS_WRITING_DATE_UT : 2015-07-02 10:56:02
_STATISTICS_TAGS : BPS DURATION NUMBER_OF_FRAMES NUMBER_OF_BYTES
Video
ID : 1
Format : AVC
Format/Info : Advanced Video Codec
Format profile : Main@L3.1
Format settings, CABAC : No
Format settings, ReFrames : 2 frames
Format settings, GOP : N=1
Codec ID : V_MPEG4/ISO/AVC
Duration : 1h 56mn
Bit rate : 4 143 Kbps
Width : 1 280 pixels
Height : 534 pixels
Display aspect ratio : 2.40:1
Frame rate mode : Constant
Frame rate : 23.976 fps
Color space : YUV
Chroma subsampling : 4:2:0
Bit depth : 8 bits
Scan type : Progressive
Bits/(Pixel*Frame) : 0.253
Stream size : 3.38 GiB (80%)
Language : English
Default : Yes
Forced : No
Color range : Limited
Color primaries : BT.709
Transfer characteristics : BT.709
Matrix coefficients : BT.709
Audio #1
ID : 2
Format : AC-3
Format/Info : Audio Coding 3
Mode extension : CM (complete main)
Format settings, Endianness : Big
Codec ID : A_AC3
Duration : 1h 56mn
Bit rate mode : Constant
Bit rate : 192 Kbps
Channel(s) : 2 channels
Channel positions : Front: L R
Sampling rate : 48.0 KHz
Compression mode : Lossy
Stream size : 161 MiB (4%)
Title : ОРТ
Language : Russian
Default : Yes
Forced : No
Audio #2
ID : 3
Format : AC-3
Format/Info : Audio Coding 3
Mode extension : CM (complete main)
Format settings, Endianness : Big
Codec ID : A_AC3
Duration : 1h 56mn
Bit rate mode : Constant
Bit rate : 192 Kbps
Channel(s) : 2 channels
Channel positions : Front: L R
Sampling rate : 48.0 KHz
Compression mode : Lossy
Stream size : 161 MiB (4%)
Title : Андрей Гаврилов
Language : Russian
Default : No
Forced : No
Audio #3
ID : 4
Format : AC-3
Format/Info : Audio Coding 3
Mode extension : CM (complete main)
Format settings, Endianness : Big
Codec ID : A_AC3
Duration : 1h 56mn
Bit rate mode : Constant
Bit rate : 192 Kbps
Channel(s) : 2 channels
Channel positions : Front: L R
Sampling rate : 48.0 KHz
Compression mode : Lossy
Stream size : 161 MiB (4%)
Title : Василий Горчаков
Language : Russian
Default : No
Forced : No
Audio #4
ID : 5
Format : AC-3
Format/Info : Audio Coding 3
Mode extension : CM (complete main)
Format settings, Endianness : Big
Codec ID : A_AC3
Duration : 1h 56mn
Bit rate mode : Constant
Bit rate : 384 Kbps
Channel(s) : 6 channels
Channel positions : Front: L C R, Side: L R, LFE
Sampling rate : 48.0 KHz
Compression mode : Lossy
Stream size : 321 MiB (7%)
Language : English
Default : No
Forced : No
Text
ID : 6
Format : UTF-8
Codec ID : S_TEXT/UTF8
Codec ID/Info : UTF-8 Plain Text
Language : English
Default : No
Forced : No

Скриншоты


_________________
Показать сообщения:    

Текущее время: Сегодня 02:52

Часовой пояс: GMT



Вы не можете начинать темы
Вы не можете отвечать на сообщения
Вы не можете редактировать свои сообщения
Вы не можете удалять свои сообщения
Вы не можете голосовать в опросах
Вы не можете прикреплять файлы к сообщениям
Вы не можете скачивать файлы
Наши партнеры: интернет магазин Ивановского трикотажа textilla.ru