Важное объявление!
У Нас Все раздачи мультитрекерные, при нуле пиров в релизах, можете смело вставать на закачку!
 
Автор Сообщение

HUNTER

Стаж:
4 года 4 месяца
Сообщений:
56839

Репутация: 101

[+] [-]
Вне форума [Профиль] [ЛС]

Парни из Эссекса / Essex Boys
Страна: Великобритания
Студия: Granada Film Productions
Жанр: триллер, криминал
Год выпуска: 2000
Продолжительность: 01:42:32
Перевод: Профессиональный (многоголосый закадровый) [ТВ, два мужских и один женский]
Cубтитры: английские, SDH
Оригинальная аудиодорожка: английский
Режиссер: Терри Уинзор / Terry Winsor
В ролях: Чарли Крид-Майлз, Шон Бин, Гарет Милн, Алекс Кингстон, Амелия Лауделл, Ларри Ламб, Майкл МакКелл, Холли Дэвидсон, Теренс Ригби, Том Уилкинсон, Билли Мюррэй, Джордж Джакос, Сэлли Херст, Луиз Лэндон, Гари Лав, Филип Ховард
Описание: Наркотики, соблазн, предательство… Джейсон Лок недавно вышел из тюрьмы и возвращается в город, чтобы снова взять контроль над улицами Эссекса, в свои руки. Он — подозрительный и неуловимый человек, который не доверяет никому, даже своей собственное жене. Однако, восстановить свое былое влияние на улицах Эссекса теперь будет очень не просто…- -Тип релиза: WEB-DL 720p
Контейнер: MKV
Видео: MPEG-4 AVC Video, 1280x716 / 1,78:1 (16:9) / ~3980 kbps / 23,976 fps / High@L3.1
Аудио 1: Russian: AC3, 2.0 ch, 192 kbps, 48 kHz
Аудио 2: English: AC3, 5.1 ch, 384 kbps, 48 kHz
Формат субтитров: softsub (SRT)
Главы:

MediaInfo

Общее
Уникальный идентификатор : 177448473694377749986326925501702546344 (0x857F55396B0B347B8195E551574723A8)
Полное имя : N:\Парни из Эссекса 2000.WEB-DL.720p.ПМ.Eng.mkv
Формат : Matroska
Версия формата : Version 4 / Version 2
Размер файла : 3,33 Гбайт
Продолжительность : 1 ч. 42 м.
Общий поток : 4648 Кбит/сек
Название фильма : Essex Boys (2000)
Дата кодирования : UTC 2016-01-03 14:12:15
Программа кодирования : mkvmerge v8.2.0 ('World of Adventure') 32bit
Библиотека кодирования : libebml v1.3.1 + libmatroska v1.4.2
Attachements : cover_land.jpg / small_cover.jpg / small_cover_land.jpg / cover.jpg
Видео
Идентификатор : 1
Формат : AVC
Формат/Информация : Advanced Video Codec
Профиль формата : High@L3.1
Параметр CABAC формата : Нет
Параметр ReFrames формата : 2 кадра
Идентификатор кодека : V_MPEG4/ISO/AVC
Продолжительность : 1 ч. 42 м.
Битрейт : 3979 Кбит/сек
Ширина : 1280 пикселей
Высота : 716 пикселей
Соотношение сторон : 16:9
Режим частоты кадров : Постоянный
Частота кадров : 23,976 кадра/сек
Цветовое пространство : YUV
Субдискретизация насыщенности : 4:2:0
Битовая глубина : 8 бит
Тип развёртки : Прогрессивная
Бит/(Пиксели*Кадры) : 0.181
Размер потока : 2,85 Гбайт (86%)
Язык : English
Default : Да
Forced : Нет
Цветовой диапазон : Limited
Основные цвета : BT.709
Характеристики трансфера : BT.709
Коэффициенты матрицы : BT.709
Аудио #1
Идентификатор : 2
Формат : AC-3
Формат/Информация : Audio Coding 3
Расширение режима : CM (complete main)
Параметр Endianness формата : Big
Идентификатор кодека : A_AC3
Продолжительность : 1 ч. 42 м.
Вид битрейта : Постоянный
Битрейт : 192 Кбит/сек
Каналы : 2 канала
Расположение каналов : Front: L R
Частота : 48,0 КГц
Частота кадров : 31,250 кадров/сек (1536 spf)
Метод сжатия : С потерями
Размер потока : 141 Мбайт (4%)
Заголовок : AC3 2.0ch 192kbps - трёхголосый (ТВ)
Язык : Russian
Default : Да
Forced : Нет
Аудио #2
Идентификатор : 3
Формат : AC-3
Формат/Информация : Audio Coding 3
Расширение режима : CM (complete main)
Параметр Endianness формата : Big
Идентификатор кодека : A_AC3
Продолжительность : 1 ч. 42 м.
Вид битрейта : Постоянный
Битрейт : 384 Кбит/сек
Каналы : 6 каналов
Расположение каналов : Front: L C R, Side: L R, LFE
Частота : 48,0 КГц
Частота кадров : 31,250 кадров/сек (1536 spf)
Метод сжатия : С потерями
Размер потока : 282 Мбайт (8%)
Заголовок : AC3 6ch 384kbps - original
Язык : English
Default : Нет
Forced : Нет
Текст #1
Идентификатор : 4
Формат : UTF-8
Идентификатор кодека : S_TEXT/UTF8
Идентификатор кодека/Информация : UTF-8 Plain Text
Язык : English
Default : Нет
Forced : Нет
Текст #2
Идентификатор : 5
Формат : UTF-8
Идентификатор кодека : S_TEXT/UTF8
Идентификатор кодека/Информация : UTF-8 Plain Text
Заголовок : SDH
Язык : English
Default : Нет
Forced : Нет
Меню
00:00:00.000 : en: 00:00:00
00:03:20.000 : en: 00:03:20
00:08:07.216 : en: 00:08:07
00:11:57.000 : en: 00:11:57
00:15:54.183 : en: 00:15:54
00:21:00.000 : en: 00:21:00
00:24:19.688 : en: 00:24:19
00:29:53.000 : en: 00:29:53
00:33:26.235 : en: 00:33:26
00:37:58.000 : en: 00:37:58
00:42:31.780 : en: 00:42:31
00:47:24.000 : en: 00:47:24
00:49:43.712 : en: 00:49:43
00:57:47.195 : en: 00:57:47
01:05:41.669 : en: 01:05:41
01:12:21.569 : en: 01:12:21
01:19:28.000 : en: 01:19:28
01:22:48.196 : en: 01:22:48
01:27:04.000 : en: 01:27:04
01:34:04.372 : en: 01:34:04
01:40:19.000 : en: 01:40:19

О съёмках фильма

Сюжет фильма основан на реальном событии, которое произошло в Эссексе в декабре 1995 года. В 15 милях от Саутенда, в автомобиле марки «Рейндж Ровер» были найдены убитыми три наркоторговца. Это убийство послужило отправной точкой для написания сценария.
Фильм практически полностью снимался в Эссексе, за исключением небольшой сцены в самом начале фильма, в которой персонаж Шона Бина избивает информатора. Съемки проходили с 28 февраля по 26 апреля 1999 года.
Терри Уинзор и Джефф Поуп ездили по графству в поисках мест, идеально соответствующих настроению фильма. Они также наблюдали за местными жителями, пытаясь уловить, как они разговаривают и двигаются. Все статисты в фильме были из Эссекса, команду по возможности тоже набирали из местных жителей.
Поскольку в Эссексе не было киностудии, для студийных съемок использовалась заброшенная обувная фабрика.
Играя Лока, Шону Бину пришлось имитировать эссекский акцент.

_________________
Показать сообщения:    

Текущее время: Сегодня 01:26

Часовой пояс: GMT



Вы не можете начинать темы
Вы не можете отвечать на сообщения
Вы не можете редактировать свои сообщения
Вы не можете удалять свои сообщения
Вы не можете голосовать в опросах
Вы не можете прикреплять файлы к сообщениям
Вы не можете скачивать файлы