Важное объявление!
У Нас Все раздачи мультитрекерные, при нуле пиров в релизах, можете смело вставать на закачку!
 
Автор Сообщение

HUNTER

Стаж:
4 года 4 месяца
Сообщений:
56829

Репутация: 101

[+] [-]
Вне форума [Профиль] [ЛС]

Парни из женской общаги / Sorority Boys-
Год выпуска: 2002
Выпущено: США
Жанр: комедия
Продолжительность: 01:33:45
Перевод: Профессиональный (многоголосый, закадровый) iTunes
+ Профессиональный (многоголосый, закадровый) R5
+ Профессиональный (двухголосый, закадровый) П.Гланц с подругой
+ Авторский одноголосый С.Визгунов
Оригинальная звуковая дорожка: English
Субтитры: Russian (Forced, Full - iTunes), Ukrainian (Full - R5), English (Full - DVD R1)-Режиссер: Уоллес Володарски / Wallace Wolodarsky
В ролях: Бэрри Уотсон, Майкл Розенбаум, Харланд Уильямс, Мелисса Сейджмиллер, Тони Денмен, Брэд Бейер, Кэтрин Стоквуд, Хизер Матараццо, Ивонн Шио, Керри Хигути
О фильме: Друзья-студенты Дэйв, Адам и Дуфер не раз попадали в переплет, но на этот раз судьба угостила их ну очень сурово, их вышибли из мужского общежития родного колледжа на улицу, ветер в карманах и отсутствие крыши над головой заставляют людей соображать очень быстро, и вот уже коллективный разум друзей производит на свет план настолько же гениальный, насколько безумный: они решают выдать себя... за девушек и найти приют в стенах женского общежития!
Да здравствуют парики, косметика и депиляторы! Благодаря им больше нет трио мачо-плейбоев. Есть Дэйзи, Адина и Роберта, троица дюжих «студенток». Новеньких «сестер» ждет теплый прием, но Дэйв-Дэйзи совершает роковой промах, угрожающий ему и друзьям разоблачением - он влюбляется в первую красотку колледжа Лею и намерен несмотря ни на что сообщить ей о своих чувствах!..-Релиз:
Формат: MKV
Видео: 1280x692 at 23.976 fps, MPEG-4 AVC, ~4000 kbps avg
Аудио #01: Russian: 48 kHz, AAC, 2/0 (L,R) ch, ~127.00 kbps avg |Многоголосый закадровый, iTunes|
Аудио #02: Russian: 48 kHz, AC3, 3/2 (L,C,R,l,r) + LFE ch, ~384.00 kbps avg |Многоголосый закадровый, R5|
Аудио #03: Russian: 48 kHz, AC3, 3/2 (L,C,R,l,r) + LFE ch, ~448.00 kbps avg |Двухголосый закадровый, Гланц с подругой|
Аудио #04: Russian: 48 kHz, AC3, 2/0 (L,R) ch, ~192.00 kbps avg |Одноголосый закадровый, С. Визгунов|
Аудио #05: Ukrainian: 48 kHz, AC3, 2/0 (L,R) ch, ~192.00 kbps avg |Двухголосый закадровый, 1+1|
Аудио #06: English: 48 kHz, AC3, 3/2 (L,C,R,l,r) + LFE ch, ~448.00 kbps avg |Оригинал, DVD R1|
Семпл-

Скриншоты


-

mInfo

Формат : Matroska
Версия формата : Version 4 / Version 2
Размер файла : 3,89 Гбайт
Продолжительность : 1 ч. 33 м.
Общий поток : 5943 Кбит/сек
Название фильма : Release by spartanec163
Дата кодирования : UTC 2015-03-16 17:26:36
Программа кодирования : mkvmerge v7.4.0 ('Circles') 64bit built on Dec 12 2014 12:19:56
Библиотека кодирования : libebml v1.3.0 + libmatroska v1.4.1
DURATION : 01:33:44.746000000
NUMBER_OF_FRAMES : 263660
NUMBER_OF_BYTES : 89499288
_STATISTICS_WRITING_APP : mkvmerge v7.4.0 ('Circles') 64bit built on Dec 12 2014 12:19:56
_STATISTICS_WRITING_DATE_UTC : 2015-03-16 17:26:36
_STATISTICS_TAGS : BPS DURATION NUMBER_OF_FRAMES NUMBER_OF_BYTES
Видео
Идентификатор : 1
Формат : AVC
Формат/Информация : Advanced Video Codec
Профиль формата : High@L3.1
Параметр CABAC формата : Нет
Параметр ReFrames формата : 2 кадра
Идентификатор кодека : V_MPEG4/ISO/AVC
Продолжительность : 1 ч. 33 м.
Ширина : 1280 пикселей
Высота : 692 пикселя
Соотношение сторон : 1,85:1
Режим частоты кадров : Постоянный
Частота кадров : 23,976 кадра/сек
Цветовое пространство : YUV
Субдискретизация насыщенности : 4:2:0
Битовая глубина : 8 бит
Тип развёртки : Прогрессивная
Заголовок : WEB-DL 720p (Rus iTunes)
Язык : English
Default : Да
Forced : Нет
Основные цвета : BT.709
Характеристики трансфера : BT.709
Коэффициенты матрицы : BT.709
colour_range : Limited
Аудио #1
Идентификатор : 2
Формат : AAC
Формат/Информация : Advanced Audio Codec
Профиль формата : LC
Идентификатор кодека : A_AAC
Продолжительность : 1 ч. 33 м.
Каналы : 2 канала
Расположение каналов : Front: L R
Частота : 48,0 КГц
Метод сжатия : С потерями
Заголовок : AAC 2.0 127Kbps (Профессиональный, многоголосый - iTunes)
Язык : Russian
Default : Да
Forced : Нет
Аудио #2
Идентификатор : 3
Формат : AC-3
Формат/Информация : Audio Coding 3
Расширение режима : CM (complete main)
Параметр Endianness формата : Big
Идентификатор кодека : A_AC3
Продолжительность : 1 ч. 33 м.
Вид битрейта : Постоянный
Битрейт : 384 Кбит/сек
Каналы : 6 каналов
Расположение каналов : Front: L C R, Side: L R, LFE
Частота : 48,0 КГц
Битовая глубина : 16 бит
Метод сжатия : С потерями
Размер потока : 257 Мбайт (6%)
Заголовок : AC3 5.1 384Kbps (Профессиональный, многоголосый - R5)
Язык : Russian
Default : Нет
Forced : Нет
Аудио #3
Идентификатор : 4
Формат : AC-3
Формат/Информация : Audio Coding 3
Расширение режима : CM (complete main)
Параметр Endianness формата : Big
Идентификатор кодека : A_AC3
Продолжительность : 1 ч. 33 м.
Вид битрейта : Постоянный
Битрейт : 448 Кбит/сек
Каналы : 6 каналов
Расположение каналов : Front: L C R, Side: L R, LFE
Частота : 48,0 КГц
Битовая глубина : 16 бит
Метод сжатия : С потерями
Размер потока : 300 Мбайт (8%)
Заголовок : AC3 5.1 448Kbps (Профессиональный, двухголосый - Гланц с подругой)
Язык : Russian
Default : Нет
Forced : Нет
Аудио #4
Идентификатор : 5
Формат : AC-3
Формат/Информация : Audio Coding 3
Расширение режима : CM (complete main)
Параметр Endianness формата : Big
Идентификатор кодека : A_AC3
Продолжительность : 1 ч. 33 м.
Вид битрейта : Постоянный
Битрейт : 192 Кбит/сек
Каналы : 2 канала
Расположение каналов : Front: L R
Частота : 48,0 КГц
Битовая глубина : 16 бит
Метод сжатия : С потерями
Размер потока : 129 Мбайт (3%)
Заголовок : AC3 2.0 192Kbps (Авторский, одноголосый - С.Визгунов)
Язык : Russian
Default : Нет
Forced : Нет
Аудио #5
Идентификатор : 6
Формат : AC-3
Формат/Информация : Audio Coding 3
Расширение режима : CM (complete main)
Параметр Endianness формата : Big
Идентификатор кодека : A_AC3
Продолжительность : 1 ч. 33 м.
Вид битрейта : Постоянный
Битрейт : 192 Кбит/сек
Каналы : 2 канала
Расположение каналов : Front: L R
Частота : 48,0 КГц
Битовая глубина : 16 бит
Метод сжатия : С потерями
Размер потока : 129 Мбайт (3%)
Заголовок : AC3 2.0 192Kbps (Профессиональный, двухголосый - 1+1)
Язык : Ukrainian
Default : Нет
Forced : Нет
Аудио #6
Идентификатор : 7
Формат : AC-3
Формат/Информация : Audio Coding 3
Расширение режима : CM (complete main)
Параметр Endianness формата : Big
Идентификатор кодека : A_AC3
Продолжительность : 1 ч. 33 м.
Вид битрейта : Постоянный
Битрейт : 448 Кбит/сек
Каналы : 6 каналов
Расположение каналов : Front: L C R, Side: L R, LFE
Частота : 48,0 КГц
Битовая глубина : 16 бит
Метод сжатия : С потерями
Размер потока : 300 Мбайт (8%)
Заголовок : AC3 5.1 448Kbps (Оригинал, DVD R1)
Язык : English
Default : Нет
Forced : Нет
Текст #1
Идентификатор : 8
Формат : UTF-8
Идентификатор кодека : S_TEXT/UTF8
Идентификатор кодека/Информация : UTF-8 Plain Text
Заголовок : Надписи, iTunes
Язык : Russian
Default : Да
Forced : Нет
Текст #2
Идентификатор : 9
Формат : UTF-8
Идентификатор кодека : S_TEXT/UTF8
Идентификатор кодека/Информация : UTF-8 Plain Text
Заголовок : Полные, iTunes
Язык : Russian
Default : Нет
Forced : Нет
Текст #3
Идентификатор : 10
Формат : UTF-8
Идентификатор кодека : S_TEXT/UTF8
Идентификатор кодека/Информация : UTF-8 Plain Text
Заголовок : Полные, DVD R5
Язык : Ukrainian
Default : Нет
Forced : Нет
Текст #4
Идентификатор : 11
Формат : UTF-8
Идентификатор кодека : S_TEXT/UTF8
Идентификатор кодека/Информация : UTF-8 Plain Text
Заголовок : Полные, DVD R1
Язык : English
Default : Нет
Forced : Нет
Меню
00:00:00.000 : en:1
00:06:42.000 : en:2
00:15:58.000 : en:3
00:27:03.000 : en:4
00:36:34.000 : en:5
00:40:15.000 : en:6
00:55:52.000 : en:7
01:02:32.000 : en:8
01:11:41.000 : en:9
01:23:27.000 : en:10

-
Цитата:
Цитата:

* Исходная вебка взята из русского iTunes.
* Сохранены оригинальные главы.
* За Визгунова спасибо Lalola, за украинскую дорожку спасибо hurtom.
* За DVD R5 спасибо nashe2006, за диск с озвучкой Гланца - Jotnar.

_________________
Показать сообщения:    

Текущее время: Сегодня 12:47

Часовой пояс: GMT



Вы не можете начинать темы
Вы не можете отвечать на сообщения
Вы не можете редактировать свои сообщения
Вы не можете удалять свои сообщения
Вы не можете голосовать в опросах
Вы не можете прикреплять файлы к сообщениям
Вы не можете скачивать файлы