Важное объявление!
У Нас Все раздачи мультитрекерные, при нуле пиров в релизах, можете смело вставать на закачку!
 
Автор Сообщение

HUNTER

Стаж:
4 года 4 месяца
Сообщений:
56722

Репутация: 101

[+] [-]
Вне форума [Профиль] [ЛС]

Парни из Джерси / Jersey Boys
Страна: США
Жанр: драма, биография, музыка
Год выпуска: 2014
Продолжительность: 02:14:17
Перевод: Профессиональный (двухголосый закадровый)
Cубтитры: английские
Оригинальная аудиодорожка: английский
Режиссер: Клинт Иствуд / Clint Eastwood
В ролях: Джон Ллойд Янг, Эрих Берген, Майкл Ломенда, Винсент Пьяцца, Кристофер Уокен, Стив Ширрипа, Кэтрин Нардуччи, Лу Волп, Джонни Канниццаро, Майкл Патрик МакГилл
Описание: Фильм является биографией группы The Four Seasons. Он рассказывает об их развитии, о пережитых личных столкновениях и трудных временах, и окончательном триумфе группы друзей, чья музыка стала символом целого поколения.

Тип релиза: BDRip 1080p
Контейнер: MKV
Видео: MPEG-4 AVC, 11.4 Мбит/с, 1920x804, 23,976 fps
Аудио: Rus, DTS, 1510 kb/s (6 ch), 48 kHz
Аудио 2: Eng, DTS, 1510 kb/s (6 ch), 48 kHz
Формат субтитров: softsub (SRT)

MediaInfo

Format : Matroska
Format version : Version 4 / Version 2
File size : 13.8 GiB
Duration : 2h 14mn
Overall bit rate : 14.7 Mbps
Movie name : Tonik
Encoded date : UTC 2015-01-20 06:46:55
Writing application : mkvmerge v7.1.0 ('Good Love') 64bit built on Jul 27 2014 13:06:55
Writing library : libebml v1.3.0 + libmatroska v1.4.1
_STATISTICS_WRITING_APP : mkvmerge v7.1.0 ('Good Love') 64bit built on Jul 27 2014 13:06:55
_STATISTICS_WRITING_DATE_UTC : 2015-01-20 06:46:55
_STATISTICS_TAGS : BPS DURATION NUMBER_OF_FRAMES NUMBER_OF_BYTES
DURATION : 02:14:17.558000000
NUMBER_OF_FRAMES : 755396
NUMBER_OF_BYTES : 1519858152
Video
ID : 1
Format : AVC
Format/Info : Advanced Video Codec
Format profile : High@L4.1
Format settings, CABAC : Yes
Format settings, ReFrames : 5 frames
Codec ID : V_MPEG4/ISO/AVC
Duration : 2h 14mn
Bit rate : 11.4 Mbps
Width : 1 920 pixels
Height : 804 pixels
Display aspect ratio : 2.40:1
Frame rate mode : Constant
Frame rate : 23.976 fps
Color space : YUV
Chroma subsampling : 4:2:0
Bit depth : 8 bits
Scan type : Progressive
Bits/(Pixel*Frame) : 0.309
Stream size : 10.7 GiB (78%)
Writing library : x264 core 142 r2431kMod ac76440
Encoding settings : cabac=1 / ref=5 / deblock=1:-3:-3 / analyse=0x3:0x133 / me=umh / subme=10 / psy=1 / fade_compensate=0.00 / psy_rd=1.05:0.00 / mixed_ref=1 / me_range=24 / chroma_me=1 / trellis=2 / 8x8dct=1 / cqm=0 / deadzone=21,11 / fast_pskip=0 / chroma_qp_offset=-2 / threads=12 / lookahead_threads=2 / sliced_threads=0 / nr=0 / decimate=0 / interlaced=0 / bluray_compat=0 / constrained_intra=0 / fgo=0 / bframes=8 / b_pyramid=2 / b_adapt=2 / b_bias=0 / direct=3 / weightb=1 / open_gop=0 / weightp=2 / keyint=250 / keyint_min=23 / scenecut=40 / intra_refresh=0 / rc=crf / mbtree=0 / crf=16.0000 / qcomp=0.70 / qpmin=0 / qpmax=69 / qpstep=4 / ip_ratio=1.20 / pb_ratio=1.10 / aq=1:0.85
Language : English
Default : Yes
Forced : No
_STATISTICS_WRITING_APP : mkvmerge v7.1.0 ('Good Love') 64bit built on Jul 27 2014 13:06:55
_STATISTICS_WRITING_DATE_UTC : 2015-01-20 06:46:55
_STATISTICS_TAGS : BPS DURATION NUMBER_OF_FRAMES NUMBER_OF_BYTES
DURATION : 02:14:17.550000000
NUMBER_OF_FRAMES : 193188
NUMBER_OF_BYTES : 11802247706
Audio #1
ID : 2
Format : DTS
Format/Info : Digital Theater Systems
Mode : 16
Format settings, Endianness : Big
Codec ID : A_DTS
Duration : 2h 14mn
Bit rate mode : Constant
Bit rate : 1 509 Kbps
Channel(s) : 6 channels
Channel positions : Front: L C R, Side: L R, LFE
Sampling rate : 48.0 KHz
Bit depth : 24 bits
Compression mode : Lossy
Stream size : 1.42 GiB (10%)
Title : MVO
Language : Russian
Default : Yes
Forced : No
Audio #2
ID : 3
Format : DTS
Format/Info : Digital Theater Systems
Mode : 16
Format settings, Endianness : Big
Codec ID : A_DTS
Duration : 2h 14mn
Bit rate mode : Constant
Bit rate : 1 509 Kbps
Channel(s) : 6 channels
Channel positions : Front: L C R, Side: L R, LFE
Sampling rate : 48.0 KHz
Bit depth : 24 bits
Compression mode : Lossy
Stream size : 1.42 GiB (10%)
Language : English
Default : No
Forced : No
Text
ID : 4
Format : UTF-8
Codec ID : S_TEXT/UTF8
Codec ID/Info : UTF-8 Plain Text
Language : English
Default : No
Forced : No
Menu
00:00:00.000 : en:00:00:00.000
00:10:48.398 : en:00:10:48.398
00:20:27.560 : en:00:20:27.560
00:29:57.129 : en:00:29:57.129
00:40:44.317 : en:00:40:44.317
00:50:25.022 : en:00:50:25.022
01:01:46.661 : en:01:01:46.661
01:09:09.979 : en:01:09:09.979
01:19:13.248 : en:01:19:13.248
01:27:32.873 : en:01:27:32.873
01:39:07.441 : en:01:39:07.441
01:49:49.583 : en:01:49:49.583
02:00:12.747 : en:02:00:12.747
02:06:16.569 : en:02:06:16.569

Скриншоты


_________________
Показать сообщения:    

Текущее время: Сегодня 13:01

Часовой пояс: GMT



Вы не можете начинать темы
Вы не можете отвечать на сообщения
Вы не можете редактировать свои сообщения
Вы не можете удалять свои сообщения
Вы не можете голосовать в опросах
Вы не можете прикреплять файлы к сообщениям
Вы не можете скачивать файлы