Важное объявление!
У Нас Все раздачи мультитрекерные, при нуле пиров в релизах, можете смело вставать на закачку!
 
Автор Сообщение

Shalun

Стаж:
4 года 4 месяца
Сообщений:
802

Репутация: 123

[+] [-]
Вне форума [Профиль] [ЛС]

Паркер / Parker
«To get away clean, you have to play dirty.»
-
-Страна: США, Alexander/ Mitchell Productions, Anvil Films, Current Entertainment, Incentive Filmed
Жанр: Боевик, триллер, криминал
Год выпуска: 2013
Продолжительность: 01:58:40-Перевод: Профессиональный (дублированный)[Звук с TS]
Cубтитры: нет-Режиссер: Тейлор Хэкфорд / Taylor Hackford-В ролях: Джейсон Стэйтем, Дженнифер Лопез, Майкл Чиклис, Уенделл Пирс, Клифтон Коллинз мл., Бобби Каннавале, Пэтти ЛюПон, Карлос Карраско, Мика А. Хауптман, Эмма Бут-Описание: Главный герой — профессиональный вор, руководствующийся собственным моральным кодексом, но способный запросто отправить на тот свет любого, кто перейдет ему дорогу.-Доп. информация: - -Качество видео: HDRip[Рип с BDRip 720p]
Формат видео: AVI
Видео: 720x304 (2.37:1), 23.976 fps, XviD MPEG-4 ~1913 kbps avg, 0.36 bit/pixel
Аудио: 48 kHz, MPEG Layer 3, 2 ch, ~192 Kbps kbps avg

MediaInfo

D:\Torrents\Parker.2013.Dt.HDRip.avi
General
Complete name : D:\Torrents\Parker.2013.Dt.HDRip.avi
Format : AVI
Format/Info : Audio Video Interleave
File size : 1.46 GiB
Duration : 1h 58mn
Overall bit rate : 1 764 Kbps
Writing application : VirtualDubMod 1.5.10.2 (build 2540/release)
Writing library : VirtualDubMod build 2540/release
Video #0
ID : 0
Format : MPEG-4 Visual
Format profile : Advanced Simple@L5
Format settings, BVOP : 2
Format settings, QPel : No
Format settings, GMC : No warppoints
Format settings, Matrix : Default (H.263)
Codec ID : XVID
Codec ID/Hint : XviD
Duration : 1h 58mn
Bit rate : 1 563 Kbps
Width : 720 pixels
Height : 304 pixels
Display aspect ratio : 2.35:1
Frame rate : 23.976 fps
Color space : YUV
Chroma subsampling : 4:2:0
Bit depth : 8 bits
Scan type : Progressive
Compression mode : Lossy
Bits/(Pixel*Frame) : 0.298
Stream size : 1.30 GiB (89%)
Writing library : XviD 1.2.1 (UTC 2008-12-04)
Audio #1
ID : 1
Format : AC-3
Format/Info : Audio Coding 3
Mode extension : CM (complete main)
Format settings, Endianness : Big
Codec ID : 2000
Duration : 1h 58mn
Bit rate mode : Constant
Bit rate : 192 Kbps
Channel(s) : 2 channels
Channel positions : Front: L R
Sampling rate : 48.0 KHz
Bit depth : 16 bits
Compression mode : Lossy
Stream size : 163 MiB (11%)
Alignment : Split accross interleaves
Interleave, duration : 42 ms (1.00 video frame)
Interleave, preload duration : 500 ms

Скриншот c названием фильма

Скриншоты


_________________

Vanya_o3

[Профиль] [ЛС]

повтор был только удалил мою раздачу
!Shalun писал(а):

Подобные высказывания не уместны! мы не удаляем раздачи чтоб перезалить их!
 
Показать сообщения:    

Текущее время: Сегодня 23:32

Часовой пояс: GMT



Вы не можете начинать темы
Вы не можете отвечать на сообщения
Вы не можете редактировать свои сообщения
Вы не можете удалять свои сообщения
Вы не можете голосовать в опросах
Вы не можете прикреплять файлы к сообщениям
Вы не можете скачивать файлы