Важное объявление!
У Нас Все раздачи мультитрекерные, при нуле пиров в релизах, можете смело вставать на закачку!
 
Автор Сообщение

HUNTER

Стаж:
4 года 4 месяца
Сообщений:
56719

Репутация: 101

[+] [-]
Вне форума [Профиль] [ЛС]

Париж: Город мёртвых / As Above, So Below
Страна: США
Жанр: ужасы, триллер
Год выпуска: 2014
Продолжительность: 01:33:08
Перевод: Профессиональный (дублированный)
Перевод 2: Одноголосый закадровый Д. Есарев
Cубтитры: Rus, Ukr, Eng
Оригинальная аудиодорожка: английский
Режиссер: Джон Эрик Даудл / John Erick Dowdle
В ролях: Пердита Викс, Бен Фельдман, Эдвин Ходж, Франсуа Сивиль, Мэрион Ламберт, Али Мархьяр, Косме Кастро, Хамид Джавадан, Тео Чолби, Эми Леви...
Описание: Величие Эйфелевой башни и роскошь бутиков, ароматы изысканной кухни и краски Елисейских полей — это лишь саван, под которым скрывается настоящий Париж. Здесь, в бесконечных катакомбах живут истинные владыки этого мира. Заблудшая душа, добро пожаловать в Город мертвых…

Тип релиза: BDRip 1080p
Контейнер: MKV
Видео: MPEG-4 AVC, 14.3 Mбит/с, 1920x1040, 23,976 fps
Аудио: Rus, DTS, 768 kb/s (6 ch), 48 kHz - Дубляж
Аудио 2: Rus, DTS, 1510 kb/s (6 ch), 48 kHz - Д. Есарев
Аудио 3: Eng, DTS, 1510 kb/s (6 ch), 48 kHz
Формат субтитров: softsub (SRT)

MediaInfo

Format : Matroska
Format version : Version 4 / Version 2
File size : 12.0 GiB
Duration : 1h 33mn
Overall bit rate : 18.5 Mbps
Movie name : Tonik
Encoded date : UTC 2014-12-13 12:01:43
Writing application : mkvmerge v7.1.0 ('Good Love') 64bit built on Jul 27 2014 13:06:55
Writing library : libebml v1.3.0 + libmatroska v1.4.1
Cover : Yes
_STATISTICS_WRITING_APP : mkvmerge v7.1.0 ('Good Love') 64bit built on Jul 27 2014 13:06:55
_STATISTICS_WRITING_DATE_UTC : 2014-12-13 12:01:43
_STATISTICS_TAGS : BPS DURATION NUMBER_OF_FRAMES NUMBER_OF_BYTES
DURATION : 01:33:01.408000000
NUMBER_OF_FRAMES : 523257
NUMBER_OF_BYTES : 535815168
Video
ID : 1
Format : AVC
Format/Info : Advanced Video Codec
Format profile : High@L4.1
Format settings, CABAC : Yes
Format settings, ReFrames : 4 frames
Codec ID : V_MPEG4/ISO/AVC
Duration : 1h 33mn
Bit rate : 14.3 Mbps
Width : 1 920 pixels
Height : 1 040 pixels
Display aspect ratio : 1.85:1
Frame rate mode : Constant
Frame rate : 23.976 fps
Color space : YUV
Chroma subsampling : 4:2:0
Bit depth : 8 bits
Scan type : Progressive
Bits/(Pixel*Frame) : 0.299
Stream size : 9.31 GiB (77%)
Writing library : x264 core 142 r2479 dd79a61
Encoding settings : cabac=1 / ref=4 / deblock=1:-3:-3 / analyse=0x3:0x133 / me=umh / subme=10 / psy=1 / psy_rd=1.00:0.00 / mixed_ref=1 / me_range=48 / chroma_me=1 / trellis=2 / 8x8dct=1 / cqm=0 / deadzone=21,11 / fast_pskip=1 / chroma_qp_offset=-2 / threads=16 / lookahead_threads=2 / sliced_threads=0 / nr=0 / decimate=1 / interlaced=0 / bluray_compat=0 / constrained_intra=0 / bframes=9 / b_pyramid=2 / b_adapt=2 / b_bias=0 / direct=3 / weightb=1 / open_gop=0 / weightp=2 / keyint=250 / keyint_min=23 / scenecut=40 / intra_refresh=0 / rc_lookahead=150 / rc=crf / mbtree=0 / crf=16.7 / qcomp=0.70 / qpmin=0 / qpmax=69 / qpstep=4 / vbv_maxrate=50000 / vbv_bufsize=62500 / crf_max=0.0 / nal_hrd=none / filler=0 / ip_ratio=1.30 / pb_ratio=1.20 / aq=1:0.80
Language : English
Default : Yes
Forced : No
_STATISTICS_WRITING_APP : mkvmerge v7.1.0 ('Good Love') 64bit built on Jul 27 2014 13:06:55
_STATISTICS_WRITING_DATE_UTC : 2014-12-13 12:01:43
_STATISTICS_TAGS : BPS DURATION NUMBER_OF_FRAMES NUMBER_OF_BYTES
DURATION : 01:33:08.542000000
NUMBER_OF_FRAMES : 133991
NUMBER_OF_BYTES : 10246570534
Audio #1
ID : 2
Format : DTS
Format/Info : Digital Theater Systems
Mode : 16
Format settings, Endianness : Big
Codec ID : A_DTS
Duration : 1h 33mn
Bit rate mode : Constant
Bit rate : 768 Kbps
Channel(s) : 6 channels
Channel positions : Front: L C R, Side: L R, LFE
Sampling rate : 48.0 KHz
Bit depth : 24 bits
Compression mode : Lossy
Stream size : 512 MiB (4%)
Language : Russian
Default : Yes
Forced : No
Audio #2
ID : 3
Format : DTS
Format/Info : Digital Theater Systems
Mode : 16
Format settings, Endianness : Big
Codec ID : A_DTS
Duration : 1h 33mn
Bit rate mode : Constant
Bit rate : 1 509 Kbps
Channel(s) : 6 channels
Channel positions : Front: L C R, Side: L R, LFE
Sampling rate : 48.0 KHz
Bit depth : 24 bits
Compression mode : Lossy
Stream size : 1 005 MiB (8%)
Title : Д. Есарев
Language : Russian
Default : No
Forced : No
Audio #3
ID : 4
Format : DTS
Format/Info : Digital Theater Systems
Mode : 16
Format settings, Endianness : Big
Codec ID : A_DTS
Duration : 1h 33mn
Bit rate mode : Constant
Bit rate : 1 509 Kbps
Channel(s) : 6 channels
Channel positions : Front: L C R, Side: L R, LFE
Sampling rate : 48.0 KHz
Bit depth : 24 bits
Compression mode : Lossy
Stream size : 1 005 MiB (8%)
Language : English
Default : No
Forced : No
Text #1
ID : 5
Format : UTF-8
Codec ID : S_TEXT/UTF8
Codec ID/Info : UTF-8 Plain Text
Title : Forced
Language : Russian
Default : Yes
Forced : No
Text #2
ID : 6
Format : UTF-8
Codec ID : S_TEXT/UTF8
Codec ID/Info : UTF-8 Plain Text
Language : Russian
Default : No
Forced : No
Text #3
ID : 7
Format : UTF-8
Codec ID : S_TEXT/UTF8
Codec ID/Info : UTF-8 Plain Text
Language : Ukrainian
Default : No
Forced : No
Text #4
ID : 8
Format : UTF-8
Codec ID : S_TEXT/UTF8
Codec ID/Info : UTF-8 Plain Text
Language : English
Default : No
Forced : No
Text #5
ID : 9
Format : UTF-8
Codec ID : S_TEXT/UTF8
Codec ID/Info : UTF-8 Plain Text
Title : SDH
Language : English
Default : No
Forced : No
Menu
00:00:00.000 : en:00:00:00.000
00:07:00.045 : en:00:07:00.045
00:09:42.749 : en:00:09:42.749
00:13:18.673 : en:00:13:18.673
00:18:37.074 : en:00:18:37.074
00:22:33.352 : en:00:22:33.352
00:24:42.815 : en:00:24:42.815
00:29:38.777 : en:00:29:38.777
00:33:03.857 : en:00:33:03.857
00:37:17.777 : en:00:37:17.777
00:43:05.333 : en:00:43:05.333
00:47:07.491 : en:00:47:07.491
00:53:20.739 : en:00:53:20.739
00:59:00.328 : en:00:59:00.328
01:05:33.555 : en:01:05:33.555
01:11:40.213 : en:01:11:40.213
01:16:05.603 : en:01:16:05.603
01:20:20.733 : en:01:20:20.733
01:26:02.616 : en:01:26:02.616
01:27:57.189 : en:01:27:57.189

Скриншоты


_________________
Показать сообщения:    

Текущее время: Сегодня 00:07

Часовой пояс: GMT



Вы не можете начинать темы
Вы не можете отвечать на сообщения
Вы не можете редактировать свои сообщения
Вы не можете удалять свои сообщения
Вы не можете голосовать в опросах
Вы не можете прикреплять файлы к сообщениям
Вы не можете скачивать файлы