Важное объявление!
У Нас Все раздачи мультитрекерные, при нуле пиров в релизах, можете смело вставать на закачку!
 
Автор Сообщение

HUNTER

Стаж:
4 года 4 месяца
Сообщений:
56749

Репутация: 101

[+] [-]
Вне форума [Профиль] [ЛС]

Парень по кличке Флинт / Our Man Flint
Страна: США
Студия: 20th Century Fox Film Corporation
Жанр: фантастика, фэнтези, боевик, комедия, приключения
Год выпуска: 1966
Продолжительность: 01:47:45
Перевод: Профессиональный (многоголосый закадровый) R5
Перевод 2: Одноголосый закадровый Вадим Белов
Cубтитры: английские
Оригинальная аудиодорожка: английский
Режиссер: Дэниэл Манн / Daniel Mann
В ролях: Джеймс Коберн, Ли Дж. Кобб, Гила Голан, Эдвард Малхейр, Бенсон Фонг, Шелби Грант, Сигрид Валдис, Джина Серра, Helen Funai, Майкл Ст. Клэр
Описание: Пародия на Джеймса Бонда. Джеймс Кобурн в роли непобедимого и неуязвимого агента некоей организации и сексапильная Голан в качестве привлекательного приложения.
Кинопоиск|Imdb|Сэмпл
Тип релиза: BDRip 720p
Контейнер: MKV
Видео: MPEG4 Video (H264) 1280x544 23.976fps 7 500 Kbps
Аудио: Русский AC-3 / 2 ch / 48.0 KHz / 192 Kbps / R5
Аудио 2: Русский AC-3 / 2 ch / 48.0 KHz / 192 Kbps Kbps / Вадим Белов
Аудио 3: Английский DTS / 1 ch / 48.0 KHz / 768 Kbps
Формат субтитров: softsub (SRT)

MediaInfo

General
Unique ID : 238234708470761126784927879483886879291 (0xB33A55FC780C28EC854B3D203573423B)
Complete name : C:\Users\Вика\Desktop\Our.Man.Flint.1966.BDRip.720p.DTS.x264.mkv
Format : Matroska
Format version : Version 4 / Version 2
File size : 6.51 GiB
Duration : 1h 47mn
Overall bit rate : 8 656 Kbps
Encoded date : UTC 2014-10-16 07:41:47
Writing application : mkvmerge v6.9.1 ('Blue Panther') 64bit built on Apr 18 2014 18:23:38
Writing library : libebml v1.3.0 + libmatroska v1.4.1
Video
ID : 1
Format : AVC
Format/Info : Advanced Video Codec
Format profile : High@L4.1
Format settings, CABAC : Yes
Format settings, ReFrames : 12 frames
Codec ID : V_MPEG4/ISO/AVC
Duration : 1h 47mn
Bit rate : 7 500 Kbps
Width : 1 280 pixels
Height : 544 pixels
Display aspect ratio : 2.35:1
Frame rate mode : Constant
Frame rate : 23.976 fps
Color space : YUV
Chroma subsampling : 4:2:0
Bit depth : 8 bits
Scan type : Progressive
Bits/(Pixel*Frame) : 0.449
Stream size : 5.52 GiB (85%)
Title : MPEG-4AVC@High Profile L4.1, 24/1.001 fps @ 7500 kbps
Writing library : x264 core 142 r2453 ea0ca51
Encoding settings : cabac=1 / ref=12 / deblock=1:-3:-3 / analyse=0x3:0x133 / me=umh / subme=11 / psy=1 / psy_rd=1.00:0.00 / mixed_ref=1 / me_range=32 / chroma_me=1 / trellis=2 / 8x8dct=1 / cqm=0 / deadzone=21,11 / fast_pskip=0 / chroma_qp_offset=-2 / threads=6 / lookahead_threads=1 / sliced_threads=0 / nr=0 / decimate=0 / interlaced=0 / bluray_compat=0 / constrained_intra=0 / bframes=6 / b_pyramid=2 / b_adapt=2 / b_bias=0 / direct=3 / weightb=1 / open_gop=0 / weightp=2 / keyint=240 / keyint_min=23 / scenecut=40 / intra_refresh=0 / rc_lookahead=60 / rc=2pass / mbtree=1 / bitrate=7500 / ratetol=1.0 / qcomp=0.60 / qpmin=0 / qpmax=69 / qpstep=4 / cplxblur=20.0 / qblur=0.5 / vbv_maxrate=22000 / vbv_bufsize=22000 / nal_hrd=none / filler=0 / ip_ratio=1.40 / aq=1:0.60
Language : English
Default : Yes
Forced : No
DURATION : 01:47:44.625000000
NUMBER_OF_FRAMES : 154996
NUMBER_OF_BYTES : 6061157447
_STATISTICS_WRITING_APP : mkvmerge v7.1.0 ('Good Love') 64bit built on Jul 27 2014 13:06:55
_STATISTICS_WRITING_DATE_UTC : 2014-09-10 09:53:14
_STATISTICS_TAGS : BPS DURATION NUMBER_OF_FRAMES NUMBER_OF_BYTES
Audio #1
ID : 2
Format : AC-3
Format/Info : Audio Coding 3
Mode extension : CM (complete main)
Format settings, Endianness : Big
Codec ID : A_AC3
Duration : 1h 47mn
Bit rate mode : Constant
Bit rate : 192 Kbps
Channel count : 2 channels
Channel positions : Front: L R
Sampling rate : 48.0 KHz
Bit depth : 16 bits
Compression mode : Lossy
Stream size : 148 MiB (2%)
Title : MVO R5
Language : Russian
Default : Yes
Forced : No
Audio #2
ID : 3
Format : AC-3
Format/Info : Audio Coding 3
Mode extension : CM (complete main)
Format settings, Endianness : Big
Codec ID : A_AC3
Duration : 1h 47mn
Bit rate mode : Constant
Bit rate : 192 Kbps
Channel count : 2 channels
Channel positions : Front: L R
Sampling rate : 48.0 KHz
Bit depth : 16 bits
Compression mode : Lossy
Stream size : 148 MiB (2%)
Title : VO Vadim Belov
Language : Russian
Default : No
Forced : No
Audio #3
ID : 4
Format : DTS
Format/Info : Digital Theater Systems
Mode : 16
Format settings, Endianness : Big
Codec ID : A_DTS
Duration : 1h 47mn
Bit rate mode : Constant
Bit rate : 768 Kbps
Channel count : 1 channel
Channel positions : Front: C
Sampling rate : 48.0 KHz
Bit depth : 24 bits
Compression mode : Lossy
Stream size : 592 MiB (9%)
Language : English
Default : No
Forced : No
Text
ID : 5
Format : UTF-8
Codec ID : S_TEXT/UTF8
Codec ID/Info : UTF-8 Plain Text
Language : English
Default : No
Forced : No
Menu
00:00:00.000 : en:00:00:00.000
00:07:54.057 : en:00:07:54.057
00:14:42.799 : en:00:14:42.799
00:21:21.906 : en:00:21:21.906
00:29:14.252 : en:00:29:14.252
00:35:30.795 : en:00:35:30.795
00:41:06.381 : en:00:41:06.381
00:50:29.235 : en:00:50:29.235
01:05:15.411 : en:01:05:15.411
01:14:31.842 : en:01:14:31.842
01:22:27.401 : en:01:22:27.401
01:36:30.326 : en:01:36:30.326

Скриншоты


_________________
Показать сообщения:    

Текущее время: Сегодня 04:29

Часовой пояс: GMT



Вы не можете начинать темы
Вы не можете отвечать на сообщения
Вы не можете редактировать свои сообщения
Вы не можете удалять свои сообщения
Вы не можете голосовать в опросах
Вы не можете прикреплять файлы к сообщениям
Вы не можете скачивать файлы