Важное объявление!
У Нас Все раздачи мультитрекерные, при нуле пиров в релизах, можете смело вставать на закачку!
 
Автор Сообщение

HUNTER

Стаж:
4 года 4 месяца
Сообщений:
56808

Репутация: 101

[+] [-]
Вне форума [Профиль] [ЛС]

Паранорман, или Как приручить зомби / ParaNorman-
Год выпуска: 2012
Страна: США, Laika Entertainment
Жанр: Мультфильм, ужасы, фэнтези, комедия, приключения
Продолжительность: 01:32:15
Перевод: Дублированный [Лицензия]-Режиссер: Крис Батлер, Сэм Фелл
В ролях: Коди Смит-МакФи, Таккер Албрицци, Анна Кендрик, Кейси Аффлек, Кристофер Минц-Плассе, Лесли Манн, Джефф Гарлин, Илэйн Стритч, Бернард Хилл, Джоделль Ферланд-О фильме:
Норман, Паранорман. Единственная надежда полусонного городка в борьбе с полчищами нечисти. Его оружие — супер-мега-дар: умение общаться с призраками. Впрочем, мертвецы — не главная опасность, куда хуже — глупые взрослые с дробовиками наперевес.-Качество: BDRip 1080p
Формат: MKV
Видеокодек: H.264
Аудиокодек: AC3 / DTS
Видео: 1920 x 800 / 23.976 fps / 8620 kbps
Аудио 1: AC3 384 Кбит/сек (6ch), 48,0 КГц, 16 бит [Русский, дубляж]
Аудио 2: DTS 1510 Кбит/сек (6ch), 48,0 КГц, 24 бит [Английский]-Семпл: http://multi-up.com/799360-

Доп.Информация

Релиз: -

MI

Полное имя : F:\Фильмы\HD-BD\Паранорман, или Как приручить зомби ParaNorman 2012 720-1080p\Paranorman.2012.D.BDRip.1080p.NNM-CLUB.mkv
Формат : Matroska
Версия формата : Version 2
Размер файла : 6,90 Гбайт
Продолжительность : 1 ч. 32 м.
Общий поток : 10,7 Мбит/сек
Название фильма : -=NNM-CLUB.RU=-
Дата кодирования : UTC 2012-12-05 12:14:04
Программа кодирования : mkvmerge v2.9.9 ('Tutu') built on Nov 25 2009 21:13:32
Библиотека кодирования : libebml v0.7.9 + libmatroska v0.8.1
Видео
Идентификатор : 1
Формат : AVC
Формат/Информация : Advanced Video Codec
Профиль формата : [url=mailto:High@L4.1]High@L4.1[/url]
Параметр CABAC формата : Да
Параметр ReFrames формата : 4 кадра
Идентификатор кодека : V_MPEG4/ISO/AVC
Продолжительность : 1 ч. 32 м.
Битрейт : 8620 Кбит/сек
Ширина : 1920 пикселей
Высота : 800 пикселей
Соотношение сторон : 2,40:1
Режим частоты кадров : Постоянный
Частота кадров : 23,976 кадра/сек
Цветовое пространство : YUV
Субдискретизация насыщенности : 4:2:0
Битовая глубина : 8 бит
Тип развёртки : Прогрессивная
Бит/(Пиксели*Кадры) : 0.234
Размер потока : 5,42 Гбайт (79%)
Заголовок : Paranorman.2012.D.BDRip.1080p.NNM-CLUB
Библиотека кодирования : x264 core 125 r2208 d9d2288
Настройки программы : cabac=1 / ref=4 / deblock=1:-3:-3 / analyse=0x3:0x113 / me=umh / subme=10 / psy=1 / psy_rd=1.00:0.05 / mixed_ref=1 / me_range=32 / chroma_me=1 / trellis=2 / 8x8dct=1 / cqm=0 / deadzone=21,11 / fast_pskip=0 / chroma_qp_offset=-2 / threads=8 / lookahead_threads=1 / sliced_threads=0 / nr=0 / decimate=1 / interlaced=0 / bluray_compat=0 / constrained_intra=0 / bframes=4 / b_pyramid=2 / b_adapt=2 / b_bias=0 / direct=3 / weightb=1 / open_gop=0 / weightp=2 / keyint=250 / keyint_min=23 / scenecut=40 / intra_refresh=0 / rc=2pass / mbtree=0 / bitrate=8620 / ratetol=1.0 / qcomp=0.70 / qpmin=0 / qpmax=69 / qpstep=4 / cplxblur=20.0 / qblur=0.5 / ip_ratio=1.40 / pb_ratio=1.30 / aq=2:1.00
Язык : English
Default : Нет
Forced : Нет
Аудио #1
Идентификатор : 2
Формат : AC-3
Формат/Информация : Audio Coding 3
Расширение режима : CM (complete main)
Параметр Endianness формата : Big
Идентификатор кодека : A_AC3
Продолжительность : 1 ч. 32 м.
Вид битрейта : Постоянный
Битрейт : 384 Кбит/сек
Каналы : 6 каналов
Расположение каналов : Front: L C R, Side: L R, LFE
Частота : 48,0 КГц
Битовая глубина : 16 бит
Метод сжатия : С потерями
Размер потока : 253 Мбайт (4%)
Заголовок : AC3.384Kbps (6ch) Russian
Язык : Russian
Default : Да
Forced : Нет
Аудио #2
Идентификатор : 3
Формат : DTS
Формат/Информация : Digital Theater Systems
Идентификатор кодека : A_DTS
Продолжительность : 1 ч. 32 м.
Вид битрейта : Постоянный
Битрейт : 1510 Кбит/сек
Каналы : 6 каналов
Расположение каналов : Front: L C R, Side: L R, LFE
Частота : 48,0 КГц
Битовая глубина : 24 бит
Метод сжатия : С потерями
Задержка видео : 11 мс.
Размер потока : 996 Мбайт (14%)
Заголовок : DTS.1510.Kbps (6ch) English
Язык : English
Default : Нет
Forced : Нет
Аудио #3
Идентификатор : 4
Формат : AC-3
Формат/Информация : Audio Coding 3
Профиль формата : Dolby Digital
Расширение режима : CM (complete main)
Параметр Endianness формата : Big
Идентификатор кодека : A_AC3
Продолжительность : 1 ч. 32 м.
Вид битрейта : Постоянный
Битрейт : 192 Кбит/сек
Каналы : 2 канала
Расположение каналов : Front: L R
Частота : 48,0 КГц
Битовая глубина : 16 бит
Метод сжатия : С потерями
Размер потока : 127 Мбайт (2%)
Заголовок : AC3.192.Kbps (2ch) English.Commentary
Язык : English
Default : Нет
Forced : Нет
Текст #1
Идентификатор : 5
Формат : UTF-8
Идентификатор кодека : S_TEXT/UTF8
Идентификатор кодека/Информация : UTF-8 Plain Text
Заголовок : Russian (Full)
Язык : Russian
Default : Да
Forced : Нет
Текст #2
Идентификатор : 6
Формат : UTF-8
Идентификатор кодека : S_TEXT/UTF8
Идентификатор кодека/Информация : UTF-8 Plain Text
Заголовок : English (SDH)
Язык : English
Default : Нет
Forced : Нет

Скриншоты:

Оформление by FireSiD

_________________
Показать сообщения:    

Текущее время: Сегодня 14:23

Часовой пояс: GMT



Вы не можете начинать темы
Вы не можете отвечать на сообщения
Вы не можете редактировать свои сообщения
Вы не можете удалять свои сообщения
Вы не можете голосовать в опросах
Вы не можете прикреплять файлы к сообщениям
Вы не можете скачивать файлы