Важное объявление!
У Нас Все раздачи мультитрекерные, при нуле пиров в релизах, можете смело вставать на закачку!
 
Автор Сообщение

HUNTER

Стаж:
4 года 4 месяца
Сообщений:
56722

Репутация: 101

[+] [-]
Вне форума [Профиль] [ЛС]

Паранорман, или Как приручить зомби / ParaNorman-
Год выпуска: 2012
Страна: США, Laika Entertainment
Жанр: Мультфильм, ужасы, фэнтези, комедия, приключения
Продолжительность: 01:32:15
Перевод: Дублированный [Лицензия]-Режиссер: Крис Батлер, Сэм Фелл
В ролях: Коди Смит-МакФи, Таккер Албрицци, Анна Кендрик, Кейси Аффлек, Кристофер Минц-Плассе, Лесли Манн, Джефф Гарлин, Илэйн Стритч, Бернард Хилл, Джоделль Ферланд-О фильме:
Норман, Паранорман. Единственная надежда полусонного городка в борьбе с полчищами нечисти. Его оружие — супер-мега-дар: умение общаться с призраками. Впрочем, мертвецы — не главная опасность, куда хуже — глупые взрослые с дробовиками наперевес.-Качество: BDRip 720p
Формат: MKV
Видеокодек: H.264
Аудиокодек: AC3 / DTS
Видео: 1280х536 / 23.976 fps / 3571 kbps
Аудио 1: (AC3, 6 ch, 384 Кбит/с) (рус)
Аудио 2: (DTS, 6 ch, 1510 Кбит/с) (англ)-

MI

Общее
Уникальный идентификатор : 186188088606810307179803524665565792613 (0x8C128581EA72BE34B72802DFB21C4965)
Полное имя : D:\Paranorman.2012.x264.BDRip.720p.mkv
Формат : Matroska
Версия формата : Version 2
Размер файла : 3,52 Гбайт
Продолжительность : 1 ч. 32 м.
Общий поток : 5466 Кбит/сек
Дата кодирования : UTC 2012-12-05 11:22:58
Программа кодирования : mkvmerge v5.6.0 ('Kenya Kane') built on May 27 2012 16:44:04
Библиотека кодирования : libebml v1.2.3 + libmatroska v1.3.0
Видео
Идентификатор : 1
Формат : AVC
Формат/Информация : Advanced Video Codec
Профиль формата : [url=mailto:High@L4.1]High@L4.1[/url]
Параметр CABAC формата : Да
Параметр ReFrames формата : 5 кадров
Идентификатор кодека : V_MPEG4/ISO/AVC
Продолжительность : 1 ч. 32 м.
Битрейт : 3571 Кбит/сек
Ширина : 1280 пикселей
Высота : 536 пикселей
Соотношение сторон : 2,40:1
Частота кадров : 23,976 кадра/сек
Цветовое пространство : YUV
Субдискретизация насыщенности : 4:2:0
Битовая глубина : 8 бит
Тип развёртки : Прогрессивная
Бит/(Пиксели*Кадры) : 0.217
Размер потока : 2,23 Гбайт (63%)
Библиотека кодирования : x264 core 129 r2230 1cffe9f
Настройки программы : cabac=1 / ref=5 / deblock=1:0:0 / analyse=0x3:0x133 / me=umh / subme=7 / psy=1 / psy_rd=1.00:0.00 / mixed_ref=1 / me_range=16 / chroma_me=1 / trellis=1 / 8x8dct=1 / cqm=0 / deadzone=21,11 / fast_pskip=0 / chroma_qp_offset=-2 / threads=12 / lookahead_threads=2 / sliced_threads=0 / nr=0 / decimate=1 / interlaced=0 / bluray_compat=0 / constrained_intra=0 / bframes=3 / b_pyramid=2 / b_adapt=1 / b_bias=0 / direct=1 / weightb=1 / open_gop=0 / weightp=2 / keyint=250 / keyint_min=23 / scenecut=40 / intra_refresh=0 / rc_lookahead=40 / rc=2pass / mbtree=1 / bitrate=3571 / ratetol=1.0 / qcomp=0.60 / qpmin=0 / qpmax=69 / qpstep=4 / cplxblur=20.0 / qblur=0.5 / ip_ratio=1.40 / aq=1:1.00
Язык : English
Default : Да
Forced : Нет
Аудио #1
Идентификатор : 2
Формат : AC-3
Формат/Информация : Audio Coding 3
Расширение режима : CM (complete main)
Идентификатор кодека : A_AC3
Продолжительность : 1 ч. 32 м.
Вид битрейта : Постоянный
Битрейт : 384 Кбит/сек
Каналы : 6 каналов
Расположение каналов : Front: L C R, Side: L R, LFE
Частота : 48,0 КГц
Битовая глубина : 16 бит
Метод сжатия : С потерями
Размер потока : 253 Мбайт (7%)
Язык : Russian
Default : Да
Forced : Нет
Аудио #2
Идентификатор : 3
Формат : DTS
Формат/Информация : Digital Theater Systems
Идентификатор кодека : A_DTS
Продолжительность : 1 ч. 32 м.
Вид битрейта : Постоянный
Битрейт : 1510 Кбит/сек
Каналы : 6 каналов
Расположение каналов : Front: L C R, Side: L R, LFE
Частота : 48,0 КГц
Битовая глубина : 24 бит
Метод сжатия : С потерями
Размер потока : 996 Мбайт (28%)
Язык : English
Default : Нет
Forced : Нет
Текст
Идентификатор : 4
Формат : UTF-8
Идентификатор кодека : S_TEXT/UTF8
Идентификатор кодека/Информация : UTF-8 Plain Text
Язык : English
Default : Нет
Forced : Нет
Меню
00:00:00.000 : en:00:00:00.000
00:04:55.420 : en:00:04:55.420
00:08:29.426 : en:00:08:29.426
00:11:38.865 : en:00:11:38.865
00:15:10.576 : en:00:15:10.576
00:18:10.673 : en:00:18:10.673
00:21:54.146 : en:00:21:54.146
00:26:25.501 : en:00:26:25.501
00:30:04.970 : en:00:30:04.970
00:33:56.117 : en:00:33:56.117
00:38:16.920 : en:00:38:16.920
00:43:06.542 : en:00:43:06.542
00:49:36.849 : en:00:49:36.849
00:52:46.789 : en:00:52:46.789
00:56:46.194 : en:00:56:46.194
01:01:15.964 : en:01:01:15.964
01:05:53.575 : en:01:05:53.575
01:11:51.057 : en:01:11:51.057
01:18:19.486 : en:01:18:19.486
01:25:07.394 : en:01:25:07.394

Скриншоты:

Оформление by FireSiD

_________________
Показать сообщения:    

Текущее время: Сегодня 17:11

Часовой пояс: GMT



Вы не можете начинать темы
Вы не можете отвечать на сообщения
Вы не можете редактировать свои сообщения
Вы не можете удалять свои сообщения
Вы не можете голосовать в опросах
Вы не можете прикреплять файлы к сообщениям
Вы не можете скачивать файлы