Важное объявление!
У Нас Все раздачи мультитрекерные, при нуле пиров в релизах, можете смело вставать на закачку!
 
Автор Сообщение

HUNTER

Стаж:
4 года 4 месяца
Сообщений:
56719

Репутация: 101

[+] [-]
Вне форума [Профиль] [ЛС]

-
Год выпуска: 2013
Страна: США, Франция
Жанр: триллер, драма
Продолжительность: 01:46:06-Перевод: Профессиональный (полное дублирование)[iTunes]
Режиссер: Роберт Лукетич / Robert Luketic
В ролях: Лиам Хемсворт (Adam Cassidy), Гари Олдман (Nicolas Wyatt), Эмбер Хёрд (Emma Jennings), Харрисон Форд (Jock Goddard), Лукас Тилл (Kevin), Эмбет Дэвидц (Dr. Judith Bolton), Джулиан МакМэхон (Miles Meechum), Джош Холлоуэй (Agent Gamble), Ричард Дрейфусс (Frank Cassidy), Анджела Сарафян (Allison), Уилльям Пельтц (Morgan), Хейли Финнегэн (Chelsea)-Описание: Адам Кэссиди - типичный «белый воротничок», пытающийся преуспеть на должности молодого специалиста в крупной телекоммуникационной корпорации. После одной весьма дорогостоящей ошибки он сталкивается лицом к лицу с безжалостным президентом компании, который соглашается не увольнять провинившегося при одном условии: Адам должен шпионить за старым наставником своего босса...--Качество: BDRip-AVC
Контейнер: MKV
Видео кодек: AVC
Аудио кодек: AC3
Видео: AVC, 1024x424 (2.40:1), 2200 kbps, 23,976 fps, 0,211 bpp
Аудио: / AC3 / 5.1 / 48 kHz / 384 kbps / 16 bit -
Рип: and77200
Группа: -

Рейтинг

4.80 (2808) 6.117 (5132)

Скриншоты

Media Info

General
Unique ID : 182014947117931174215550313047002224159 (0x88EECDBF27C13F739EB0B1A92290961F)
Complete name : G:\Фильмы\Паранойя.2013.BDRip-AVC.mkv
Format : Matroska
Format version : Version 4 / Version 2
File size : 1.92 GiB
Duration : 1h 46mn
Overall bit rate : 2 585 Kbps
Encoded date : UTC 2013-11-26 14:28:41
Writing application : mkvmerge v6.4.1 ('Omega Point') built on Sep 16 2013 22:05:10
Writing library : libebml v1.3.0 + libmatroska v1.4.1
Video
ID : 1
Format : AVC
Format/Info : Advanced Video Codec
Format profile : [url=mailto:High@L4.1]High@L4.1[/url]
Format settings, CABAC : Yes
Format settings, ReFrames : 10 frames
Codec ID : V_MPEG4/ISO/AVC
Duration : 1h 46mn
Bit rate : 2 200 Kbps
Width : 1 024 pixels
Height : 424 pixels
Display aspect ratio : 2.40:1
Original display aspect ratio : 2.40:1
Frame rate mode : Constant
Frame rate : 23.976 fps
Color space : YUV
Chroma subsampling : 4:2:0
Bit depth : 8 bits
Scan type : Progressive
Bits/(Pixel*Frame) : 0.211
Stream size : 1.59 GiB (83%)
Writing library : x264 core 124 r2197M 69a0443
Encoding settings : cabac=1 / ref=11 / deblock=1:0:0 / analyse=0x3:0x133 / me=umh / subme=9 / psy=1 / psy_rd=1.00:0.20 / mixed_ref=1 / me_range=11 / chroma_me=1 / trellis=0 / 8x8dct=1 / cqm=0 / deadzone=21,11 / fast_pskip=1 / chroma_qp_offset=-2 / threads=2 / sliced_threads=0 / nr=0 / decimate=1 / interlaced=0 / bluray_compat=0 / constrained_intra=0 / bframes=11 / b_pyramid=1 / b_adapt=0 / b_bias=0 / direct=3 / weightb=1 / open_gop=0 / weightp=0 / keyint=230 / keyint_min=23 / scenecut=40 / intra_refresh=0 / rc_lookahead=40 / rc=2pass / mbtree=1 / bitrate=2200 / ratetol=1.0 / qcomp=0.60 / qpmin=10 / qpmax=51 / qpstep=4 / cplxblur=20.0 / qblur=0.5 / ip_ratio=1.40 / aq=1:1.00
Language : English
Default : Yes
Forced : No
Audio
ID : 2
Format : AC-3
Format/Info : Audio Coding 3
Mode extension : CM (complete main)
Format settings, Endianness : Big
Codec ID : A_AC3
Duration : 1h 46mn
Bit rate mode : Constant
Bit rate : 384 Kbps
Channel count : 6 channels
Channel positions : Front: L C R, Side: L R, LFE
Sampling rate : 48.0 KHz
Bit depth : 16 bits
Compression mode : Lossy
Stream size : 291 MiB (15%)
Language : Russian
Default : Yes
Forced : No
Menu
00:00:00.000 : en:(01)00:00:00:000
00:06:54.205 : en:(02)00:06:54:205
00:10:31.839 : en:(03)00:10:31:839
00:14:12.601 : en:(04)00:14:12:601
00:17:02.396 : en:(05)00:17:02:396
00:21:41.008 : en:(06)00:21:41:008
00:26:29.921 : en:(07)00:26:29:921
00:31:31.848 : en:(08)00:31:31:848
00:36:47.580 : en:(09)00:36:47:580
00:39:37.500 : en:(10)00:39:37:500
00:46:08.932 : en:(11)00:46:08:932
00:49:15.327 : en:(12)00:49:15:327
00:54:37.899 : en:(13)00:54:37:899
00:57:30.238 : en:(14)00:57:30:238
00:59:16.511 : en:(15)00:59:16:511
01:04:02.547 : en:(16)01:04:02:547
01:06:58.431 : en:(17)01:06:58:431
01:10:14.960 : en:(18)01:10:14:960
01:19:23.759 : en:(19)01:19:23:759
01:23:21.079 : en:(20)01:23:21:079
01:27:37.502 : en:(21)01:27:37:502
01:35:06.617 : en:(22)01:35:06:617
01:37:53.367 : en:(23)01:37:53:367
01:40:59.053 : en:(24)01:40:59:053
01:46:06.109 : en:(25)01:46:06:109
Оформление by and77200

_________________
Показать сообщения:    

Текущее время: Сегодня 00:16

Часовой пояс: GMT



Вы не можете начинать темы
Вы не можете отвечать на сообщения
Вы не можете редактировать свои сообщения
Вы не можете удалять свои сообщения
Вы не можете голосовать в опросах
Вы не можете прикреплять файлы к сообщениям
Вы не можете скачивать файлы