Важное объявление!
У Нас Все раздачи мультитрекерные, при нуле пиров в релизах, можете смело вставать на закачку!
 
Автор Сообщение

HUNTER

Стаж:
4 года 4 месяца
Сообщений:
56755

Репутация: 101

[+] [-]
Вне форума [Профиль] [ЛС]

-Параллельные миры
Upside Down

Год выпуска: 2011
Страна: Канада, Франция (Studio 37, Onyx Films, Transfilm INTL, Kinologic Films, Jouror Productions, France 2 Cinema)
Жанр: Мелодрама, Фантастика, Фэнтези
Продолжительность: 01:48:06
Перевод: Профессиональный (дублированный)
Режиссер: Хуан Диего Соланас / Juan Diego Solanas-Роли исполняли (дублировали):
.....
Адам - Джим Стёрджесс (Александр Гаврилин)
Иден - Кирстен Данст (Василиса Воронина)
Боб Боручовиц - Тимоти Сполл
Альберт - Блу Манкума
Пабло - Николас Роуз (Михаил Тихонов)
Вильям Лагавулин - Джеймс Кидни (Никита Прозоровский)
Мистер Хант - Власта Врана
Беки - Кейт Троттер
Паула - Холли О’Брайэн
Адам (двенадцатилетний) - Эллиотт Ларсон-Гилмор
Иден (десятилетняя) - Моран Арканд
-Описание: Очень давно две планеты притянулись друг к другу, и на обеих планетах живут люди, для каждой из планет есть своё притяжение. На верхней планете царит богатство и благоденствие. На ней создана корпорация, выкачивающая недры второй планеты и взамен предлагающая электроэнергию по неподъёмной для бедных жителей нижней планеты цене. Перемещение людей между планетами жестко контролируется.
В центре событий находятся двое людей: она — девушка из богатой семьи из верхнего мира, он — простой человек из нижнего мира, и они любят друг друга. А ещё есть секрет пчелиной пыльцы, которая добывается одновременно на обеих планетах и имеет невероятные свойства.-Доп. информация: ИМХО - студийная конвертация 3Д на уровне фильма "Я, робот".
Картинка очень зернистая. Чёрные полосы сверху-снизу есть.

Техн. детали съёмки

  • Съёмки: Март 2010 — нет данных
  • Формат изображения: 2.35 : 1
  • Камера: Arricam LT, Hawk V-Lite and V-Plus Lenses
    Arricam ST, Hawk V-Lite and V-Plus Lenses
  • Формат копии: 35 mm
    D-Cinema
  • Формат съёмок: 35 mm
Премьера: 22 августа 2012 (23 августа 2012)
Ре-премьера 3Д: 22 августа 2013
Релиз на DVD и Blu-Ray: 27 сентября 2012
Бюджет: $72 000 000
Кассовые сборы: $23 663 620

. .
-Качество: BDRip (by Ash61)
Контейнер: MKV
Формат 3D: Half OverUnder / Вертикальная анаморфная стереопара
Порядок ракурсов: левый ракурс первый
Видео кодек: x264
Аудио кодек: AC3-Видео: AVC / 23,976 fps / 1920х1080p / 15.9 Mbps
Аудио:
#1 - Русский / AC3 / 48 KHz / 5.1 ch / 640 Kbps (Дубляж - БД 2Д)
#2 - Английский / AC3 / 48 KHz / 5.1 ch / 640 Kbps (Original)
Субтитры: Внешние (SRT UTF-8)
#1 - Русские Полные
#2 - English Full

MediaInfo

General
Unique ID : 218472558992019152338386768500799172882 (0xA45C48CA7035E07A85DC7EE3A079F112)
Complete name : G:\Downloads\UpsideDown(3D-halfOU)2012(Ash61)\UpsideDown(3D-halfOU)2012(Ash61).mkv
Format : Matroska
Format version : Version 2
File size : 13.2 GiB
Duration : 1h 48mn
Overall bit rate : 17.5 Mbps
Movie name : Параллельные миры / Upside Down (3D) 2012
Encoded date : UTC 2013-06-22 07:18:41
Writing application : mkvmerge v5.8.0 ('No Sleep / Pillow') built on Sep 2 2012 15:37:04
Writing library : libebml v1.2.3 + libmatroska v1.3.0
Video
ID : 1
Format : AVC
Format/Info : Advanced Video Codec
Format profile : High@L4.1
Format settings, CABAC : Yes
Format settings, ReFrames : 4 frames
Codec ID : V_MPEG4/ISO/AVC
Duration : 1h 48mn
Bit rate : 15.9 Mbps
Width : 1 920 pixels
Height : 1 080 pixels
Display aspect ratio : 16:9
Frame rate mode : Constant
Frame rate : 23.976 fps
Color space : YUV
Chroma subsampling : 4:2:0
Bit depth : 8 bits
Scan type : Progressive
Bits/(Pixel*Frame) : 0.319
Stream size : 12.0 GiB (91%)
Title : BDRip by Ash61
Writing library : x264 core 129 r2245 bc13772
Encoding settings : cabac=1 / ref=4 / deblock=1:-3:-3 / analyse=0x3:0x113 / me=umh / subme=9 / psy=1 / psy_rd=1.00:0.15 / mixed_ref=1 / me_range=32 / chroma_me=1 / trellis=2 / 8x8dct=1 / cqm=0 / deadzone=21,11 / fast_pskip=1 / chroma_qp_offset=-3 / threads=12 / lookahead_threads=2 / sliced_threads=0 / nr=0 / decimate=1 / interlaced=0 / bluray_compat=0 / constrained_intra=0 / bframes=9 / b_pyramid=2 / b_adapt=2 / b_bias=0 / direct=3 / weightb=1 / open_gop=0 / weightp=2 / keyint=250 / keyint_min=23 / scenecut=40 / intra_refresh=0 / rc_lookahead=60 / rc=crf / mbtree=1 / crf=17.5 / qcomp=0.70 / qpmin=0 / qpmax=69 / qpstep=4 / vbv_maxrate=40000 / vbv_bufsize=30000 / crf_max=0.0 / nal_hrd=none / frame-packing=4 / ip_ratio=1.40 / aq=1:0.70
Language : English
Default : Yes
Forced : No
Audio #1
ID : 2
Format : AC-3
Format/Info : Audio Coding 3
Mode extension : CM (complete main)
Format settings, Endianness : Big
Codec ID : A_AC3
Duration : 1h 48mn
Bit rate mode : Constant
Bit rate : 640 Kbps
Channel(s) : 6 channels
Channel positions : Front: L C R, Side: L R, LFE
Sampling rate : 48.0 KHz
Bit depth : 16 bits
Compression mode : Lossy
Stream size : 495 MiB (4%)
Title : Дубляж - BD2D
Language : Russian
Default : Yes
Forced : No
Audio #2
ID : 3
Format : AC-3
Format/Info : Audio Coding 3
Mode extension : CM (complete main)
Format settings, Endianness : Big
Codec ID : A_AC3
Duration : 1h 48mn
Bit rate mode : Constant
Bit rate : 640 Kbps
Channel(s) : 6 channels
Channel positions : Front: L C R, Side: L R, LFE
Sampling rate : 48.0 KHz
Bit depth : 16 bits
Compression mode : Lossy
Stream size : 495 MiB (4%)
Title : Original
Language : English
Default : No
Forced : No
Menu
00:00:00.000 : :1
00:08:00.438 : :2
00:14:32.246 : :3
00:22:38.357 : :4
00:35:24.122 : :5
00:42:27.086 : :6
00:50:48.295 : :7
01:05:32.262 : :8
01:14:12.657 : :9
01:23:08.859 : :10
01:31:19.808 : :11
01:38:59.600 : :12

Для оценки 3д - Анимированные скрины
















_________________
Показать сообщения:    

Текущее время: Сегодня 10:18

Часовой пояс: GMT



Вы не можете начинать темы
Вы не можете отвечать на сообщения
Вы не можете редактировать свои сообщения
Вы не можете удалять свои сообщения
Вы не можете голосовать в опросах
Вы не можете прикреплять файлы к сообщениям
Вы не можете скачивать файлы