Важное объявление!
У Нас Все раздачи мультитрекерные, при нуле пиров в релизах, можете смело вставать на закачку!
 
Автор Сообщение

HUNTER

Стаж:
4 года 4 месяца
Сообщений:
56798

Репутация: 101

[+] [-]
Вне форума [Профиль] [ЛС]

Парад Победы. Москва. Красная Площадь
Год выпуска: 2013
Страна: Россия
Студия: ВГТРК, Первый канал
Жанр: Военный парад
Продолжительность: 01:01:01
Перевод: Не требуется
Русские субтитры: нет
Описание: Военный парад в ознаменование 68-й годовщины Победы в Великой Отечественной войне пройдет на Красной площади в Москве. В составе механизированной колонны парадного расчета по брусчатке, как и в прошлом году, пройдут три автономных пусковых установки подвижного грунтового ракетного комплекса "Тополь-М“, а в небе пролетят 68 самолетов и вертолетов ВВС - по числу лет, пошедших с 9 мая 1945 года.
Источник: собственный рип
Доп. информация: Релиз -

Рип чистый. Без посторонних надписей. Выкладывается как есть.
Качество: HDTVRip
Контейнер: AVI
Видео кодек: XVID
Аудио кодек: MP3
Видео: 720x400 (16:9) 25.000 fps 2 039 Kbps, 0.283 bit/pixel
Аудио: MPEG Audio 48000Hz stereo 192 Кбит/сек

Скриншоты


Скринлист

MI

GeneralComplete name : C:\Парад Победы. Москва. Красная Площадь (2013, Военный парад, HDTVRip) (MYDIMKA).aviFormat : AVIFormat/Info : Audio Video InterleaveFile size : 978 MiBDuration : 1h 1mnOverall bit rate : 2 240 KbpsWriting application : VirtualDubMod 1.5.10.2 (build 2540/release)Writing library : VirtualDubMod build 2540/release
VideoID : 0Format : MPEG-4 VisualFormat profile : Advanced Simple@L5Format settings, BVOP : 2Format settings, QPel : NoFormat settings, GMC : No warppointsFormat settings, Matrix : Default (H.263)Muxing mode : Packed bitstreamCodec ID : XVIDCodec ID/Hint : XviDDuration : 1h 1mnBit rate : 2 039 KbpsWidth : 720 pixelsHeight : 400 pixelsDisplay aspect ratio : 16:9Frame rate : 25.000 fpsColor space : YUVChroma subsampling : 4:2:0Bit depth : 8 bitsScan type : ProgressiveCompression mode : LossyBits/(Pixel*Frame) : 0.283Stream size : 890 MiB (91%)Writing library : XviD 1.2.1 (UTC 2008-12-04)
AudioID : 1Format : MPEG AudioFormat version : Version 1Format profile : Layer 3Codec ID : 55Codec ID/Hint : MP3Duration : 1h 1mnBit rate mode : ConstantBit rate : 192 KbpsChannel(s) : 2 channelsSampling rate : 48.0 KHzCompression mode : LossyStream size : 83.8 MiB (9%)Alignment : Aligned on interleavesInterleave, duration : 40 ms (1.00 video frame)Interleave, preload duration : 504 msWriting library : LAME3.99rEncoding settings : -m s -V 4 -q 2 -lowpass 18.6 -b 192

_________________
Показать сообщения:    

Текущее время: Сегодня 20:52

Часовой пояс: GMT



Вы не можете начинать темы
Вы не можете отвечать на сообщения
Вы не можете редактировать свои сообщения
Вы не можете удалять свои сообщения
Вы не можете голосовать в опросах
Вы не можете прикреплять файлы к сообщениям
Вы не можете скачивать файлы