Важное объявление!
У Нас Все раздачи мультитрекерные, при нуле пиров в релизах, можете смело вставать на закачку!
 
Автор Сообщение

HUNTER

Стаж:
4 года 4 месяца
Сообщений:
56749

Репутация: 101

[+] [-]
Вне форума [Профиль] [ЛС]

Папина доченька / Daddy's Little Girl
Страна: Австралия
Жанр: ужасы, триллер, драма
Год выпуска: 2012
Продолжительность: 01:47:19
Перевод: Любительский (двухголосый закадровый) - den904 & DeadSno
Оригинальная аудиодорожка: английский
Cубтитры: нет-Режиссер: Крис Сан / Chris Sun
В ролях: Майкл Томсон (Derek), Аллира Жак (Stacey), Билли Бейкер (Georgia), Кристиан Редфорд (Tommy), Холли Филлипс (Sian), Шон Гэннон (Colin), Даррел Пламридж (Detective Harris), Джеми Джозеф (Detective Sam Johnson), Энтони Томас (Derek's Father), Лиэнн Сатклифф (Derek's Mother), Ребекка Плинт (Tanya)-Описание: Шестилетняя Джорджия - единственная дочь Дерека и Стейси, внезапно исчезает из дома. Родители до последнего момента надеются, что ребенок найдется живым и невредимым. Но безутешное горе сваливается на них: Джорджия стала жертвой неизвестного маньяка-педофила. Полиция бессильна, шесть месяцев поисков преступника впустую. Совершенно неожиданно Дерек узнает, кто совершил это ужасное злодеяние... У обезумевшего от горя отца зреет план кровавой мести - устроить убийце по одному дню изуверских пыток за каждый год прожитой жизни папиной доченьки.-СЭМПЛ
Тип релиза: BDRip 1080p
Исходник: Daddys.Little.Girl.2012.German.DTS-HD.DL.1080p.Bluray.AVC.REMUX-LeetHD
Контейнер: MKV
Видео: 1920x818p / 24.000 fps / 2.35:1 / High Profile 4.1 / AVC / ~ 8000 Kbps
Аудио 1: AC3 / 448 Kbps / 5.1 / 48 kHz / Russian / DVO - den904 & DeadSno
Аудио 2: DTS / 1510 Kbps / 5.1 / 48 kHz / English / original-IMDB * КиноПоиск

Внимание! В русской озвучке присутствует нецензурная лексика.
Фильм настоятельно не рекомендуется людям впечатлительным, с ранимой психикой.

MediaInfo / x264 log

General
Complete name : Daddys.Little.Girl.2012.BDRip.1080p.DVO.mkv
Format : Matroska
Format version : Version 2
File size : 7.42 GiB
Duration : 1h 47mn
Overall bit rate : 9 898 Kbps
Encoded date : UTC 2014-09-13 13:01:20
Writing application : mkvmerge v5.8.0 ('No Sleep / Pillow') built on Sep 2 2012 15:37:04
Writing library : libebml v1.2.3 + libmatroska v1.3.0
Video
ID : 1
Format : AVC
Format/Info : Advanced Video Codec
Format profile : High@L4.1
Format settings, CABAC : Yes
Format settings, ReFrames : 5 frames
Codec ID : V_MPEG4/ISO/AVC
Duration : 1h 47mn
Bit rate : 8 000 Kbps
Width : 1 920 pixels
Height : 818 pixels
Display aspect ratio : 2.35:1
Frame rate mode : Constant
Frame rate : 24.000 fps
Color space : YUV
Chroma subsampling : 4:2:0
Bit depth : 8 bits
Scan type : Progressive
Bits/(Pixel*Frame) : 0.212
Stream size : 5.80 GiB (78%)
Title : Daddy's Little Girl 2012 BDRip 1080p
Writing library : x264 core 135 r2345 f0c1c53
Encoding settings : cabac=1 / ref=5 / deblock=1:-3:-3 / analyse=0x3:0x113 / me=umh / subme=11 / psy=1 / psy_rd=1.20:0.15 / mixed_ref=1 / me_range=32 / chroma_me=1 / trellis=2 / 8x8dct=1 / cqm=0 / deadzone=21,11 / fast_pskip=1 / chroma_qp_offset=-3 / threads=6 / lookahead_threads=1 / sliced_threads=0 / nr=0 / decimate=1 / interlaced=0 / bluray_compat=0 / constrained_intra=0 / bframes=8 / b_pyramid=2 / b_adapt=2 / b_bias=0 / direct=3 / weightb=1 / open_gop=0 / weightp=2 / keyint=240 / keyint_min=23 / scenecut=40 / intra_refresh=0 / rc=2pass / mbtree=0 / bitrate=8000 / ratetol=1.0 / qcomp=0.60 / qpmin=0 / qpmax=69 / qpstep=4 / cplxblur=20.0 / qblur=0.5 / ip_ratio=1.40 / pb_ratio=1.30 / aq=2:0.70
Default : Yes
Forced : No
Audio #1
ID : 2
Format : AC-3
Format/Info : Audio Coding 3
Mode extension : CM (complete main)
Format settings, Endianness : Big
Codec ID : A_AC3
Duration : 1h 47mn
Bit rate mode : Constant
Bit rate : 448 Kbps
Channel(s) : 6 channels
Channel positions : Front: L C R, Side: L R, LFE
Sampling rate : 48.0 KHz
Bit depth : 16 bits
Compression mode : Lossy
Stream size : 344 MiB (5%)
Title : RUS AC3 448 6ch DVO den904_DeadSno
Language : Russian
Default : Yes
Forced : No
Audio #2
ID : 3
Format : DTS
Format/Info : Digital Theater Systems
Mode : 16
Format settings, Endianness : Big
Codec ID : A_DTS
Duration : 1h 47mn
Bit rate mode : Constant
Bit rate : 1 510 Kbps
Channel(s) : 6 channels
Channel positions : Front: L C R, Side: L R, LFE
Sampling rate : 48.0 KHz
Bit depth : 16 bits
Compression mode : Lossy
Stream size : 1.13 GiB (15%)
Title : ENG DTS 1510 6ch original
Language : English
Default : No
Forced : No
Menu
00:00:00.000 : :Chapter 01
00:12:19.625 : :Chapter 02
00:17:31.500 : :Chapter 03
00:23:55.166 : :Chapter 04
00:33:03.541 : :Chapter 05
00:42:31.458 : :Chapter 06
00:51:44.833 : :Chapter 07
01:05:17.041 : :Chapter 08
01:11:01.375 : :Chapter 09
01:15:55.916 : :Chapter 10
01:27:39.000 : :Chapter 11
01:36:43.291 : :Chapter 12
01:43:24.833 : :Chapter 13
01:47:17.416 : :Chapter 14-x264 [info]: frame I:848 Avg QP:11.09 size:135883
x264 [info]: frame P:38874 Avg QP:13.33 size: 72876
x264 [info]: frame B:114818 Avg QP:15.10 size: 29968
x264 [info]: consecutive B-frames: 4.2% 5.5% 12.6% 14.4% 17.7% 41.6% 1.8% 1.0% 1.3%

Скриншот с названием

Скриншоты




_________________
Показать сообщения:    

Текущее время: Сегодня 22:50

Часовой пояс: GMT



Вы не можете начинать темы
Вы не можете отвечать на сообщения
Вы не можете редактировать свои сообщения
Вы не можете удалять свои сообщения
Вы не можете голосовать в опросах
Вы не можете прикреплять файлы к сообщениям
Вы не можете скачивать файлы