Важное объявление!
У Нас Все раздачи мультитрекерные, при нуле пиров в релизах, можете смело вставать на закачку!
 
Автор Сообщение

HUNTER

Стаж:
4 года 4 месяца
Сообщений:
56783

Репутация: 101

[+] [-]
Вне форума [Профиль] [ЛС]

Падал прошлогодний снег---
Режиссёр Александр ТатарскийГод выпуска: 1983
Страна: СССР
Жанр: Мультфильм
Продолжительность: 00:19:51
Перевод: Оригинал--Описание:
Давненько когда-то, в одной весьма пластилиновой местности, жил да был орел-мужчина, как-то под новый год послала его жена за елкой…-- --Качество: DVDRip-AVC
Контейнер: MKV
Видео кодек: AVC
Аудио кодек: AC3
Видео: 720x574 (4:3) @ 768x574, 25.000 fps, AVC, ~2458 Kbps, 0.238 bits/pixel
Аудио: Russian, 48.0 KHz, AC3, 2 ch, 192 Kbps--

Тех.данные

General
Unique ID : 205685798589886655055216588775057844617 (0x9ABDA4D444811E899F293C87F784E989)
Complete name : C:\torrent\Owner\Vorona\Падал прошлогодний снег.mkv
Format : Matroska
Format version : Version 2
File size : 384 MiB
Duration : 19mn 51s
Overall bit rate : 2 704 Kbps
Encoded date : UTC 2011-12-16 15:21:36
Writing application : mkvmerge v5.1.0 ('And so it goes') built on Nov 28 2011 23:58:28
Writing library : libebml v1.2.3 + libmatroska v1.3.0
Video
ID : 1
Format : AVC
Format/Info : Advanced Video Codec
Format profile : [url=mailto:High@L4.0]High@L4.0[/url]
Format settings, CABAC : Yes
Format settings, ReFrames : 16 frames
Codec ID : V_MPEG4/ISO/AVC
Duration : 19mn 51s
Bit rate : 2 458 Kbps
Width : 720 pixels
Height : 574 pixels
Display aspect ratio : 4:3
Frame rate : 25.000 fps
Color space : YUV
Chroma subsampling : 4:2:0
Bit depth : 8 bits
Scan type : Progressive
Bits/(Pixel*Frame) : 0.238
Stream size : 349 MiB (91%)
Title : Nyc-2008 / rutracker.org / RG Multfilmy
Writing library : x264 core 120 r2120kMod 0c7dab9
Encoding settings : cabac=1 / ref=16 / deblock=1:0:0 / analyse=0x3:0x113 / me=umh / subme=11 / psy=1 / fade_compensate=0.00 / psy_rd=1.00:0.10 / mixed_ref=1 / me_range=24 / chroma_me=1 / trellis=2 / 8x8dct=1 / cqm=0 / deadzone=21,11 / fast_pskip=0 / chroma_qp_offset=-3 / threads=6 / sliced_threads=0 / nr=0 / decimate=1 / interlaced=0 / bluray_compat=0 / constrained_intra=0 / bframes=15 / b_pyramid=2 / b_adapt=2 / b_bias=0 / direct=1 / weightb=1 / open_gop=0 / weightp=2 / keyint=250 / keyint_min=25 / scenecut=40 / intra_refresh=0 / rc_lookahead=60 / rc=crf / mbtree=1 / crf=18.1800 / qcomp=0.60 / qpmin=0 / qpmax=69 / qpstep=4 / ip_ratio=1.40 / aq=2:1.00
Language : Russian
Audio
ID : 2
Format : AC-3
Format/Info : Audio Coding 3
Mode extension : CM (complete main)
Codec ID : A_AC3
Duration : 19mn 51s
Bit rate mode : Constant
Bit rate : 192 Kbps
Channel(s) : 2 channels
Channel positions : Front: L R
Sampling rate : 48.0 KHz
Bit depth : 16 bits
Compression mode : Lossy
Stream size : 27.3 MiB (7%)
Language : Russian

Доп. информация

А. Татарский получил за «Падал прошлогодний снег» приз «Серебряный Кукер» на МКФ в Варне в 1983 году и Диплом ФИДЕЖ на III фестивале в Варне (Болгария). Первоначально роль рассказчика планировалось отдать Лие Ахеджаковой, но, в конце концов, обе роли — Мужика и сказочника — были отданы Садальскому.
--

_________________
Показать сообщения:    

Текущее время: Сегодня 20:29

Часовой пояс: GMT



Вы не можете начинать темы
Вы не можете отвечать на сообщения
Вы не можете редактировать свои сообщения
Вы не можете удалять свои сообщения
Вы не можете голосовать в опросах
Вы не можете прикреплять файлы к сообщениям
Вы не можете скачивать файлы