Важное объявление!
У Нас Все раздачи мультитрекерные, при нуле пиров в релизах, можете смело вставать на закачку!
 
Автор Сообщение

HUNTER

Стаж:
4 года 4 месяца
Сообщений:
56848

Репутация: 101

[+] [-]
Вне форума [Профиль] [ЛС]

Очень мрачное кино / Film Noir
Страна: США, Сербия
Жанр: мультфильм, криминал, детектив, нуар, для взрослых
Продолжительность: 01:36:01
Год выпуска: 2007
-
Перевод: Профессиональный (многоголосый закадровый)
Русские субтитры: нет
-
Режиссёр: Д. Джад Джонс / D. Jud Jones, Ристо Топалоски / Risto Topaloski
Роли озвучивали: Марк Келлер, Беттина Девин, Роджер Л. Джексон, Джефф Атик, Кристина Негрете, Виктория Райан О’Тул, Илэйн А. Кларк, Эми Провензано
-
Описание: Ночь, дождь, мягкий свет, бокал виски… и трупы, трупы, трупы. Главный герой не знает кто он. Он приходит в сознание рядом с трупом полицейского, а возле тела лежит револьвер. Похоже, что наш герой и есть убийца. НО он не может ничего вспомнить… Герой попадает в жестокий мир смертельного обмана и безграничной безнравственности, в мир, где грязнее лжи бывает только секс, и единственное, в чем можно быть уверенным, — это то, что всё — не то, чем кажется.
-
Доп. информация:
-
Семпл: http://multi-up.com/987660
-
Качество: DVDRip (DVD9/Aleksrims)
Формат: AVI
Видео: 704x384 (1.83:1), 25 fps, XviD build 65 ~1720 kbps avg, 0.25 bit/pixel
Аудио: 48 kHz, AC3 Dolby Digital, 3/2 (L,C,R,l,r) + LFE ch, ~448 kbps
Субтитры: отсутствуют

Подробные технические данные

GeneralComplete name : C:\Users\ALEX\Downloads\Фильмы\Очень мрачное кино.2007.RUS.DVDRip.XviD.AC3.aviFormat : AVIFormat/Info : Audio Video InterleaveFile size : 1.46 GiBDuration : 1h 36mnOverall bit rate : 2 178 KbpsWriting application : VirtualDubMod 1.5.10.2 (build 2542/release)Writing library : VirtualDubMod build 2542/release
VideoID : 0Format : MPEG-4 VisualFormat profile : Advanced Simple@L5Format settings, BVOP : 1Format settings, QPel : NoFormat settings, GMC : No warppointsFormat settings, Matrix : CustomCodec ID : XVIDCodec ID/Hint : XviDDuration : 1h 36mnBit rate : 1 721 KbpsWidth : 704 pixelsHeight : 384 pixelsDisplay aspect ratio : 1.85:1Frame rate : 25.000 fpsColor space : YUVChroma subsampling : 4:2:0Bit depth : 8 bitsScan type : ProgressiveCompression mode : LossyBits/(Pixel*Frame) : 0.255Stream size : 1.15 GiB (79%)Writing library : XviD 65
AudioID : 1Format : AC-3Format/Info : Audio Coding 3Mode extension : CM (complete main)Format settings, Endianness : BigCodec ID : 2000Duration : 1h 36mnBit rate mode : ConstantBit rate : 448 KbpsChannel(s) : 6 channelsChannel positions : Front: L C R, Side: L R, LFESampling rate : 48.0 KHzBit depth : 16 bitsCompression mode : LossyStream size : 308 MiB (21%)Alignment : Split accross interleavesInterleave, duration : 40 ms (1.00 video frame)Interleave, preload duration : 500 ms

Скриншоты


_________________
Показать сообщения:    

Текущее время: Сегодня 00:57

Часовой пояс: GMT



Вы не можете начинать темы
Вы не можете отвечать на сообщения
Вы не можете редактировать свои сообщения
Вы не можете удалять свои сообщения
Вы не можете голосовать в опросах
Вы не можете прикреплять файлы к сообщениям
Вы не можете скачивать файлы
Наши партнеры: интернет магазин Ивановского трикотажа textilla.ru