Важное объявление!
У Нас Все раздачи мультитрекерные, при нуле пиров в релизах, можете смело вставать на закачку!
 
Автор Сообщение

HUNTER

Стаж:
4 года 4 месяца
Сообщений:
56733

Репутация: 101

[+] [-]
Вне форума [Профиль] [ЛС]

Охотники за реликвиями / Auction Hunters
Дата/Год выпуска: 2014
Страна: USA
Жанр: Научно-популярный
Продолжительность: 00:20:00
Перевод: Профессиональный (двухголосый закадровый)
Телеканал: Discovery
Описание: Аллен Хафф и Тон Джонс колесят по Америке и скупают невостребованное имущество в надежде, что оно окажется настоящим сокровищем. Чем интереснее история находки, тем выше её цена!
1 СЕЗОН http://rutracker.org/forum/viewtopic.php?t=3955821
2-3-4 СЕЗОН http://rutracker.org/forum/viewtopic.php?t=4507567
http://www.spike.com/shows/auction-hunters/episode-guide
Сэмпл: https://www.sendspace.com/file/lloes2
качество: HDTVRip
формат: AVI
Видео: Xvid 720x400 25fps 1500kbps
Аудио: MP3 48000Hz stereo 128kbps

Список выпусков/серий

1. Space Cowboys / Космические ковбои. Тон и Аллен начали новую главу своей карьеры. Они находят старинное огнестрельное оружие второй мировой войны и российский скафандр, который может стать для них самой большой находкой на сегодняшний день...
2. Ramped Up / Трамплин. Тон и Аллен вновь соперничают с их бывшей помощницей Кэролин, в то время как Тон страдает от боли в спине. Ребята находят автоматическую пневматическую винтовку и трамплин, а когда переговоры о продаже трамплина заходят в тупик, Аллен сталкивается с трудным решением.
3. Hook, Line & Printer / Крюк, веревка и принтер. Последний аукцион в Норуоке оказывается сложным когда Тон и Аллен идут нога в ногу с парой настоящих ковбоев. Когда пыль уляжется, ребята находят 3D-принтер и крюк, и им не терпится стрельнуть из пушки крюком.
4. Rock And Roll / Фургон и внедорожник. Аукцион в Уиттиере начинается с проблем, когда покупатель по имени большой Дэйв пытается скупить все лоты. Но ребята выиграли фургон-буфет и внедорожник-скалолаз с опасными последствиями.
5. Betsy's Last Stand / Последняя битва за Бетси.

MediaInfo

GeneralComplete name : C:\Videos\Auction Hunters 5 Season\Auction Hunters S5_E01_Space Cowboys.aviFormat : AVIFormat/Info : Audio Video InterleaveFile size : 234 MiBDuration : 19mn 57sOverall bit rate : 1 638 KbpsWriting application : VirtualDubMod 1.5.10.3 | www.virtualdub-fr.org || (build 2550/release)Writing library : VirtualDubMod build 2550/release
VideoID : 0Format : MPEG-4 VisualFormat profile : Advanced Simple@L5Format settings, BVOP : 2Format settings, QPel : NoFormat settings, GMC : No warppointsFormat settings, Matrix : Default (MPEG)Codec ID : XVIDCodec ID/Hint : XviDDuration : 19mn 57sBit rate : 1 500 KbpsWidth : 720 pixelsHeight : 400 pixelsDisplay aspect ratio : 16:9Frame rate : 25.000 fpsColor space : YUVChroma subsampling : 4:2:0Bit depth : 8 bitsScan type : ProgressiveCompression mode : LossyBits/(Pixel*Frame) : 0.208Stream size : 214 MiB (92%)Writing library : XviD 1.2.1 (UTC 2008-12-04)
AudioID : 1Format : MPEG AudioFormat version : Version 1Format profile : Layer 3Codec ID : 55Codec ID/Hint : MP3Duration : 19mn 57sBit rate mode : ConstantBit rate : 128 KbpsChannel(s) : 2 channelsSampling rate : 48.0 KHzCompression mode : LossyStream size : 18.3 MiB (8%)Alignment : Aligned on interleavesInterleave, duration : 40 ms (1.00 video frame)Interleave, preload duratio : 504 msWriting library : LAME3.99rEncoding settings : -m s -V 4 -q 0 -lowpass 17 -b 128

Скриншоты

S5_E01_Space Cowboys / Космические ковбои
-S5_E02_Ramped Up / Трамплин
-S5_E03_Hook, Line & Printer / Крюк, веревка и принтер
-S5_E04_Rock And Roll / Фургон и внедорожник
-S5_E05_Betsy's Last Stand / Последняя битва за Бэтси
-
добавлена 5 серия

Внимание! Раздача ведётся путём добавления новых выпусков

Внимание! Раздача ведётся путём добавления новых выпусков; при каждом добавлении создаётся новый торрент. Чтобы начать докачку нового выпуска, пользователям необходимо сделать следующее:
(1) остановить скачивание,
(2) удалить старый торрент у себя из клиента (старые серии удалять не надо),
(3) скачать новый торрент и запустить его у себя в клиенте вместо старого, при этом указать клиенту путь в старую папку куда и должно происходить скачивание новых выпусков.
Ваш клиент при этом должен произвести хеширование (проверку) старой папки (если не производит сам - помогите ему сделать это). В результате он будет докачивать только те выпуски, которых у Вас ещё нет. Старые выпуски при этом не удаляются, а продолжают раздаваться!
Eсли Вы уже удалили старые выпуски, то предотвратить их повторную закачку можно, сняв галочки в соответствующих местах при запуске нового торрента. По возможности, желательно не удалять старые выпуски как можно дольше, чтобы релизёр не только продолжал раздавать старые выпуски, но и смог сконцентрироваться на новых.

_________________
Показать сообщения:    

Текущее время: Сегодня 19:41

Часовой пояс: GMT



Вы не можете начинать темы
Вы не можете отвечать на сообщения
Вы не можете редактировать свои сообщения
Вы не можете удалять свои сообщения
Вы не можете голосовать в опросах
Вы не можете прикреплять файлы к сообщениям
Вы не можете скачивать файлы