Важное объявление!
У Нас Все раздачи мультитрекерные, при нуле пиров в релизах, можете смело вставать на закачку!
 
Автор Сообщение

димитри37

Стаж:
3 года 8 месяцев
Сообщений:
1237

Репутация: 127

[+] [-]
Вне форума [Профиль] [ЛС]

Охотники за караванами-
Год выпуска: 2010
Производство: 4К по заказу Star Media
Жанр: боевик, военный
Продолжительность: ~ 00:46:00
Субтитры: нет-Режиссёр: Сергей Чекалов-В ролях: Алексей Серебряков, Андрей Саминин, Алексей Лонгин, Всеволод Хованский-Померанцев, Карина Андоленко, Евгения Лютая, Владимир Смирнов, Михаил Тарабукин, Иван Шибанов, Никита Емшанов-Описание: Афганистан. 1986 год. Появившиися у моджахедов переносные зенитные комплексы "Стингер" грозят положить конец господству в воздухе советской авиации. Командир разведбата майор Оковалков получает задание добыть образец этого нового оружия. Для этого ему необходимо захватить небольшой караван. Однако караван оказывается огромным, с хорошо вооруженной охраной. Поняв, что операция провалена, Оковалко принимает решение переждать прохождение колонны и вернуться в часть, но его планы нарушает автоматная очередь, случайно выпущенная молодым неопытным солдатом...

Качество: HDTVRip - AVC [Рип с HDTV 1080i]
Формат: MKV
Видео кодек: H.264
Аудио кодек: AC3
Видео: x264, 1024 х 576 (16:9), 25,000 кадр/сек, ~ 1835 Кбит/сек, ~ 0.124 bit/pixel
Аудио: AC3, 48.0 KHz, 2 канала(ов), 192 kbs

MI

Охотники за караванами.01 серия.2010.HDTVRip-AVC.Metla111.mkv
Format : Matroska
Format version : Version 2
File size : 700 MiB
Duration : 48mn 13s
Overall bit rate : 2 029 Kbps
Encoded date : UTC 2012-11-13 11:35:05
Writing application : mkvmerge v5.8.0 ('No Sleep / Pillow') built on Sep 2 2012 15:37:04
Writing library : libebml v1.2.3 + libmatroska v1.3.0
Video
ID : 1
Format : AVC
Format/Info : Advanced Video Codec
Format profile : High@L3.1
Format settings, CABAC : Yes
Format settings, ReFrames : 12 frames
Codec ID : V_MPEG4/ISO/AVC
Duration : 48mn 13s
Bit rate : 1 835 Kbps
Width : 1 024 pixels
Height : 576 pixels
Display aspect ratio : 16:9
Frame rate mode : Constant
Frame rate : 25.000 fps
Color space : YUV
Chroma subsampling : 4:2:0
Bit depth : 8 bits
Scan type : Progressive
Bits/(Pixel*Frame) : 0.124
Stream size : 620 MiB (89%)
Writing library : x264 core 125 r2208 d9d2288
Encoding settings : cabac=1 / ref=12 / deblock=1:-3:-3 / analyse=0x3:0x113 / me=umh / subme=9 / psy=1 / psy_rd=1.00:0.15 / mixed_ref=1 / me_range=64 / chroma_me=1 / trellis=2 / 8x8dct=1 / cqm=0 / deadzone=21,11 / fast_pskip=1 / chroma_qp_offset=-3 / threads=3 / lookahead_threads=1 / sliced_threads=0 / nr=0 / decimate=0 / interlaced=0 / bluray_compat=0 / constrained_intra=0 / bframes=12 / b_pyramid=2 / b_adapt=2 / b_bias=0 / direct=3 / weightb=1 / open_gop=0 / weightp=2 / keyint=250 / keyint_min=25 / scenecut=40 / intra_refresh=0 / rc=2pass / mbtree=0 / bitrate=1835 / ratetol=1.0 / qcomp=0.65 / qpmin=0 / qpmax=69 / qpstep=4 / cplxblur=20.0 / qblur=0.5 / ip_ratio=1.40 / pb_ratio=1.30 / aq=2:1.00
Default : Yes
Forced : No
Color primaries : BT.709
Transfer characteristics : BT.709
Matrix coefficients : BT.709
Audio
ID : 2
Format : AC-3
Format/Info : Audio Coding 3
Mode extension : CM (complete main)
Format settings, Endianness : Big
Codec ID : A_AC3
Duration : 48mn 13s
Bit rate mode : Constant
Bit rate : 192 Kbps
Channel(s) : 2 channels
Channel positions : Front: L R
Sampling rate : 48.0 KHz
Bit depth : 16 bits
Compression mode : Lossy
Stream size : 66.2 MiB (9%)
Default : Yes
Forced : No

Log - x264

raw [info]: 1024x576p 1:1 @ 25/1 fps (cfr)
x264 [info]: using SAR=1/1
x264 [info]: using cpu capabilities: MMX2 SSE2Fast SSSE3 FastShuffle SSE4.1 Cache64
x264 [info]: profile High, level 3.1
x264 [info]: frame I:550 Avg QP:19.89 size: 78976
x264 [info]: frame P:19689 Avg QP:22.69 size: 19359
x264 [info]: frame B:52096 Avg QP:24.67 size: 4588
x264 [info]: consecutive B-frames: 4.7% 2.8% 10.9% 51.9% 14.0% 11.6% 1.7% 1.3% 0.7% 0.1% 0.0% 0.1% 0.1%
x264 [info]: mb I I16..4: 6.6% 73.1% 20.4%
x264 [info]: mb P I16..4: 1.1% 6.5% 1.0% P16..4: 43.6% 22.5% 12.6% 0.0% 0.0% skip:12.6%
x264 [info]: mb B I16..4: 0.1% 0.6% 0.1% B16..8: 37.5% 7.5% 2.1% direct: 3.4% skip:48.7% L0:34.7% L1:52.8% BI:12.5%
x264 [info]: 8x8 transform intra:74.5% inter:59.9%
x264 [info]: direct mvs spatial:97.8% temporal:2.2%
x264 [info]: coded y,uvDC,uvAC intra: 82.1% 80.1% 40.8% inter: 18.2% 17.0% 4.7%
x264 [info]: i16 v,h,dc,p: 29% 13% 8% 50%
x264 [info]: i8 v,h,dc,ddl,ddr,vr,hd,vl,hu: 10% 9% 5% 9% 14% 14% 14% 12% 13%
x264 [info]: i4 v,h,dc,ddl,ddr,vr,hd,vl,hu: 12% 8% 3% 8% 15% 15% 14% 11% 13%
x264 [info]: i8c dc,h,v,p: 34% 24% 22% 20%
x264 [info]: Weighted P-Frames: Y:3.2% UV:1.7%
x264 [info]: ref P L0: 56.5% 14.9% 14.9% 3.0% 2.8% 1.7% 1.8% 0.8% 0.9% 0.7% 0.8% 0.8% 0.2% 0.0%
x264 [info]: ref B L0: 86.9% 7.3% 2.1% 1.2% 0.7% 0.6% 0.4% 0.4% 0.3% 0.2% 0.1%
x264 [info]: ref B L1: 96.3% 3.7%
x264 [info]: kb/s:1834.79

Скриншоты


FAQ по просмотру MKV/h.264/AAC

-
Показать сообщения:    

Текущее время: Сегодня 08:57

Часовой пояс: GMT



Вы не можете начинать темы
Вы не можете отвечать на сообщения
Вы не можете редактировать свои сообщения
Вы не можете удалять свои сообщения
Вы не можете голосовать в опросах
Вы не можете прикреплять файлы к сообщениям
Вы не можете скачивать файлы