Важное объявление!
У Нас Все раздачи мультитрекерные, при нуле пиров в релизах, можете смело вставать на закачку!
 
Автор Сообщение

HUNTER

Стаж:
4 года 4 месяца
Сообщений:
56755

Репутация: 101

[+] [-]
Вне форума [Профиль] [ЛС]

Охотники за древностями / Relic Hunter (Сезон: 1-3 / Серии: 1-22)
Год выпуска: 1999-2001 г.
Страна: Германия, США, Канада, Франция
Жанр: Приключения, Мистика, Фантастика, Фэнтези, Боевик, Детектив
Сезон: Сезона 3
Серии: 66 из 66
Продолжительность: 66 x ~44 минуты
Перевод: Профессиональный (многоголосый, закадровый) (СТС)
Перевод: (Сезон 1: Серии 1,2,13) Любительский одноголосый закадровый (Хамстер)
Русские субтитры: нет
Режиссер: Паоло Барзмен, Крис Боулд, Хорхе Монтеси, ...
В ролях: Тиа Каррере, Кристиен Энхолт, Линди Бут, Таня Ричерт, Хуан Карлос Велис, Луис Мэндилор, Тони Розато, Элиас Зэроу, Карло Рота, Ян Фельдман, ...
Описание:
Профессор Сидни Фокс - так называемый «охотник за древностями», постоянно путешествует по миру в поисках древних артефактов, которые она возвращает в музеи или настоящим владельцам.
У нее есть помощники - ассистент-языковед Найджел и ветреная секретарша Клаудиа. Очень часто поиски Сидни приводят к стычкам с искателями древностей, готовыми пойти на все, чтобы заполучить раритеты для собственной выгоды...

Видео-сэмпл

http://multi-up.com/597147

Тех данные

1999 Сезон 1 перевод СТС

Качество: DVDRip
Формат: AVI
Данные видео: 512x384 (1.33:1), 23.976 fps, XviD Final 1.0.3 (build 37) ~1027 kbps avg, ~0.22 bit/pixel
Данные аудио: 1 (Rus): 48 kHz, MPEG Layer 3, 2 ch, 128.00 kbps avg
Данные аудио: 2 (Eng): 48 kHz, MPEG Layer 3, 2 ch, 128.00 kbps avg
Серии: 1,2,13
Данные аудио: 44.1 kHz, MPEG Layer 3, 2 ch, ~192.00 kbps avg

2000 Сезон 2 перевод СТС

Качество: DVDRip
Формат: AVI
Данные видео: 576x320 (1.80:1), 25 fps, XviD MPEG-4 ~938 kbps avg, ~0.20 bit/pixel
Данные аудио: 1 (Rus): 576x320 (1.80:1), 25 fps, XviD MPEG-4 ~938 kbps avg, ~0.20 bit/pixel
Данные аудио: 2 (Eng): 48 kHz, MPEG Layer 3, 2 ch, ~128.00 kbps avg

2001 Сезон 3 перевод СТС

Качество: DVDRip
Формат: AVI
Данные видео: 576x432 (1.33:1), 23.976 fps, XviD Final 1.0.3 (build 37) ~891 kbps avg, ~0.15 bit/pixel
Данные аудио: 1 (Rus): 48 kHz, AC3 Dolby Digital, 2/0 (L,R) ch, ~192.00 kbps avg
Данные аудио: 2 (Eng): 48 kHz, AC3 Dolby Digital, 2/0 (L,R) ch, ~192.00 kbps avg
Серия 10 :
Качество: PDTVRIP
Формат: AVI
Данные видео: 512x384 (1.33:1), 23.976 fps, XviD Final 1.0.3 (build 37) 982 kbps avg, 0.21 bit/pixel
Данные аудио: 1 (Rus): 44.100 kHz, MPEG Layer 3, 2 ch, 128.00 kbps avg
Данные аудио: 2 (Eng): 44.100 kHz, MPEG Layer 3, 2 ch, 128.00 kbps avg

Список серий

Relic Hunter «Охотники за древностями» Сезон: 1

Эпизод 01. Buddha’s Bowl «Чаша Будды»
Эпизод 02. Smoking Gun «Явная улика»
Эпизод 03. The Headless Nun «Монахиня без головы»
Эпизод 04. Flag Day «Под каменным колпаком»
Эпизод 05. Thank You Very Much «Много благодарных»
Эпизод 06. Diamond in the Rough «Ловушка для звезды»
Эпизод 07. Transformation «Превращения»
Эпизод 08. Etched in Stone «Камень Кональда»
Эпизод 09. The Book of Love «Книга любви»
Эпизод 10. The Myth of the Maze «Миф о лабиринте»
Эпизод 11. Irish Crown Affair «Дело о короне»
Эпизод 12. The Emperor’s Bride «Невеста императора»
Эпизод 13. Afterlife and Death «Жизнь после смерти»
Эпизод 14. Nine Lives «Девять жизней»
Эпизод 15. Affaire de Coeur «Дела амурные»
Эпизод 16. A Vanishing Art «В мире иллюзий»
Эпизод 17. A Good Year «Урожайный год»
Эпизод 18. The Last Knight «Последний рыцарь»
Эпизод 19. Love Letter «Признание в любви»
Эпизод 20. Possessed «Одержимые»
Эпизод 21. Nothing but the Truth «Правда и только правда»
Эпизод 22. Memories of Montmartre «Воспоминание о Монмарте»

Relic Hunter «Охотники за древностями» Сезон: 2

Эпизод 01. The Put Back «Возвращение идола»
Эпизод 02. Dagger of Death «Смертоносный кинжал»
Эпизод 03. Last of the Mochicas «Последний из могикан»
Эпизод 04. The Legend of the Lost «Легенда о затерянном племени»
Эпизод 05. Fertile Ground «Сад плодородия»
Эпизод 06. Gypsy Jigsaw «Цыганская головоломка»
Эпизод 07. Three Rivers to Cross «За горами, за реками»
Эпизод 08. Roman Holiday «Римские каникулы»
Эпизод 09. Cross of Voodoo «Крест Вуду»
Эпизод 10. Lost Contact «Пропавший контакт»
Эпизод 11. The Reel Thing «Настоящее»
Эпизод 12. M.I.A. «Пропавшая без вести»
Эпизод 13. Out of the Past «Назад из прошлого»
Эпизод 14. Eyes of Toklamanee «Глаза Токламани»
Эпизод 15. Run Sydney Run «Беги Сидни, беги»
Эпизод 16. French Connection «Французские связи»
Эпизод 17. Don’t Go Into the Woods «Не ходите дети в лес»
Эпизод 18. Midnight Flight «Полуночный рейс»
Эпизод 19. The Executioner’s Mask «Маска палача»
Эпизод 20. The Royal Ring «Перстень королевы»
Эпизод 21. Set in Stone «Заточённый в камень»
Эпизод 22. Deadline «Предельный срок»

Relic Hunter «Охотники за древностями» Сезон: 3

Эпизод 01. Wages of Sydney «Boзмeздиe Cидни»
Эпизод 02. Mr. Right «Чaшa Паpвaти»
Эпизод 03. Sydney at Ten «Ктo cтapoe пoмянeт»
Эпизод 04. The Light of Truth «Cвeт иcтины»
Эпизод 05. Treasure Island «Ocтpoв coкpoвищ»
Эпизод 06. Star of Nadir «Звeздa Haдиpa»
Эпизод 07. Vampire’s Kiss «Пoцeлyй вaмпиpa»
Эпизод 08. Devil Doll «Дьявoльcкaя кyклa»
Эпизод 09. Incognito «Инкoгнитo»
Эпизод 10. All Choked Up «Cтaтyя Aфины»
Эпизод 11. Warlock of Nu Theta Phi «Чepнoкнижник»
Эпизод 12. Women Want to Know «Жeнcкий интepec»
Эпизод 13. Fire in the Sky «Огонь в небе»
Эпизод 14. Hunting with the Enemy «На охоте с врагом»
Эпизод 15. Antianeiral «Пояс Ипалиты»
Эпизод 16. Under the Ice «Подо льдом»
Эпизод 17. Arthur’s Cross «Крест Короля Артура»
Эпизод 18. Faux Fox «Ложная Синди»
Эпизод 19. Pandora’s Box «Ящик Пандоры»
Эпизод 20. The Warlord «Повелитель войны»
Эпизод 21. Fountain of Youth «Фонтан юности»
Эпизод 22. So Shall it Be «Пусть будет так»

Скриншоты

Скриншоты 1 сезон DVDRip

Скриншоты 2 сезон DVDRip

Скриншоты 3 сезон DVDRip

Доп. информация

Тут можно посмотреть краткое описание и дату выхода, правда на английском http://www.tv.com/relic-hunter/show/2470/episode_guide.html?season=All

MI

1 сезон

Format : AVI
Format/Info : Audio Video Interleave
File size : 406 MiB
Duration : 44mn 37s
Overall bit rate : 1 272 Kbps
Writing application : VirtualDubModRus 1.5.10.2 (build 2542/release)
Writing library : VirtualDubMod build 2542/release
Video
ID : 0
Format : MPEG-4 Visual
Format profile : Advanced Simple@L5
Format settings, BVOP : 2
Format settings, QPel : No
Format settings, GMC : No warppoints
Format settings, Matrix : Default (H.263)
Codec ID : XVID
Codec ID/Hint : XviD
Duration : 44mn 37s
Bit rate : 1 002 Kbps
Width : 512 pixels
Height : 384 pixels
Display aspect ratio : 4:3
Frame rate : 23.976 fps
Color space : YUV
Chroma subsampling : 4:2:0
Bit depth : 8 bits
Scan type : Progressive
Compression mode : Lossy
Bits/(Pixel*Frame) : 0.213
Stream size : 320 MiB (79%)
Writing library : XviD 1.0.3 (UTC 2004-12-20)
Audio #1
ID : 1
Format : MPEG Audio
Format version : Version 1
Format profile : Layer 3
Mode : Joint stereo
Mode extension : MS Stereo
Codec ID : 55
Codec ID/Hint : MP3
Duration : 44mn 37s
Bit rate mode : Constant
Bit rate : 128 Kbps
Channel(s) : 2 channels
Sampling rate : 48.0 KHz
Compression mode : Lossy
Stream size : 40.9 MiB (10%)
Alignment : Aligned on interleaves
Interleave, duration : 42 ms (1.00 video frame)
Interleave, preload duration : 504 ms
Audio #2
ID : 2
Format : MPEG Audio
Format version : Version 1
Format profile : Layer 3
Mode : Joint stereo
Mode extension : MS Stereo
Codec ID : 55
Codec ID/Hint : MP3
Duration : 44mn 37s
Bit rate mode : Constant
Bit rate : 128 Kbps
Channel(s) : 2 channels
Sampling rate : 48.0 KHz
Compression mode : Lossy
Stream size : 40.9 MiB (10%)
Alignment : Aligned on interleaves
Interleave, duration : 42 ms (1.00 video frame)
Interleave, preload duration : 504 ms

2 сезон

Format : AVI
Format/Info : Audio Video Interleave
File size : 369 MiB
Duration : 42mn 52s
Overall bit rate : 1 204 Kbps
Writing application : VirtualDubModRus 1.5.10.2 (build 2542/release)
Writing library : VirtualDubMod build 2542/release
Video
ID : 0
Format : MPEG-4 Visual
Format settings, BVOP : No
Format settings, QPel : No
Format settings, GMC : No warppoints
Format settings, Matrix : Default (H.263)
Codec ID : XVID
Codec ID/Hint : XviD
Duration : 42mn 52s
Bit rate : 933 Kbps
Width : 576 pixels
Height : 320 pixels
Display aspect ratio : 16:9
Frame rate : 25.000 fps
Color space : YUV
Chroma subsampling : 4:2:0
Bit depth : 8 bits
Scan type : Progressive
Compression mode : Lossy
Bits/(Pixel*Frame) : 0.202
Stream size : 286 MiB (78%)
Audio #1
ID : 1
Format : MPEG Audio
Format version : Version 1
Format profile : Layer 3
Mode : Joint stereo
Mode extension : MS Stereo
Codec ID : 55
Codec ID/Hint : MP3
Duration : 42mn 52s
Bit rate mode : Constant
Bit rate : 128 Kbps
Channel(s) : 2 channels
Sampling rate : 48.0 KHz
Compression mode : Lossy
Stream size : 39.3 MiB (11%)
Alignment : Aligned on interleaves
Interleave, duration : 40 ms (1.00 video frame)
Interleave, preload duration : 504 ms
Audio #2
ID : 2
Format : MPEG Audio
Format version : Version 1
Format profile : Layer 3
Mode : Joint stereo
Mode extension : MS Stereo
Codec ID : 55
Codec ID/Hint : MP3
Duration : 42mn 52s
Bit rate mode : Constant
Bit rate : 128 Kbps
Channel(s) : 2 channels
Sampling rate : 48.0 KHz
Compression mode : Lossy
Stream size : 39.3 MiB (11%)
Alignment : Aligned on interleaves
Interleave, duration : 40 ms (1.00 video frame)
Interleave, preload duration : 504 ms

3 сезон

Format : AVI
Format/Info : Audio Video Interleave
File size : 413 MiB
Duration : 44mn 44s
Overall bit rate : 1 291 Kbps
Writing application : VirtualDubMod 1.5.10.3 (build 2550/release)
Writing library : VirtualDubMod build 2550/release
Video
ID : 0
Format : MPEG-4 Visual
Format profile : Advanced Simple@L5
Format settings, BVOP : Yes
Format settings, QPel : No
Format settings, GMC : No warppoints
Format settings, Matrix : Default (H.263)
Codec ID : XVID
Codec ID/Hint : XviD
Duration : 44mn 44s
Bit rate : 892 Kbps
Width : 576 pixels
Height : 432 pixels
Display aspect ratio : 4:3
Frame rate : 23.976 fps
Color space : YUV
Chroma subsampling : 4:2:0
Bit depth : 8 bits
Scan type : Progressive
Compression mode : Lossy
Bits/(Pixel*Frame) : 0.150
Stream size : 286 MiB (69%)
Writing library : XviD 1.0.3 (UTC 2004-12-20)
Audio #1
ID : 1
Format : AC-3
Format/Info : Audio Coding 3
Mode extension : CM (complete main)
Codec ID : 2000
Duration : 44mn 44s
Bit rate mode : Constant
Bit rate : 192 Kbps
Channel(s) : 2 channels
Channel positions : Front: L R
Sampling rate : 48.0 KHz
Bit depth : 16 bits
Compression mode : Lossy
Stream size : 61.4 MiB (15%)
Alignment : Split accross interleaves
Interleave, duration : 42 ms (1.00 video frame)
Interleave, preload duration : 500 ms
Audio #2
ID : 2
Format : AC-3
Format/Info : Audio Coding 3
Mode extension : CM (complete main)
Codec ID : 2000
Duration : 44mn 44s
Bit rate mode : Constant
Bit rate : 192 Kbps
Channel(s) : 2 channels
Channel positions : Front: L R
Sampling rate : 48.0 KHz
Bit depth : 16 bits
Compression mode : Lossy
Video delay : 7ms
Stream size : 61.4 MiB (15%)
Alignment : Split accross interleaves
Interleave, duration : 42 ms (1.00 video frame)
Interleave, preload duration : 500 ms

_________________
Показать сообщения:    

Текущее время: Сегодня 13:04

Часовой пояс: GMT



Вы не можете начинать темы
Вы не можете отвечать на сообщения
Вы не можете редактировать свои сообщения
Вы не можете удалять свои сообщения
Вы не можете голосовать в опросах
Вы не можете прикреплять файлы к сообщениям
Вы не можете скачивать файлы