Важное объявление!
У Нас Все раздачи мультитрекерные, при нуле пиров в релизах, можете смело вставать на закачку!
 
Автор Сообщение

HUNTER

Стаж:
4 года 4 месяца
Сообщений:
56719

Репутация: 101

[+] [-]
Вне форума [Профиль] [ЛС]

Охотники за бриллиантами-Год выпуска: 2011
Страна: Россия
Жанр: Детектив
Продолжительность:
Кол-во серий: 8 из 8
Перевод: оригинал
Субтитры: нет-В ролях:Алексей Серебряков, Евгений Миронов, Александр Новин, Мария Аронова, Пётр Фёдоров, Людмила Максакова, Владимир Ильин, Авангард Леонтьев, Михаил Горевой, Владимир Симонов, Татьяна Жекова, Ольга Зубкова, Роман Синицын, Андрей Бута, Игорь Гордин, Геннадий Поварухин, Павел Шингарев, Ирина Токарчук
Режиссёр: Александр Котт-Описание: В начале 80-х годов по СССР прокатилась волна громких «бриллиантовых» дел, самым первым из которых стало преступление с ограблением квартиры вдовы Алексея Толстого. Имущество известного писателя, в основном антиквариат, стоило баснословных денег. Ходили даже слухи, что на эти деньги можно было купить колонну автотранспорта для таксопарка. Коллекция, собранная знаменитым писателем, считалась самой богатой в стране.
Помимо антиквариата, из квартиры были похищены уникальные драгоценности: старинный ювелирный гарнитур с бриллиантами (серьги и массивная бриллиантовая брошь «Королевская лилия» в виде цветка лилии). Брошь была сделана в XVIII веке по заказу французского короля Людовика XV. Драгоценности неоднократно меняли владельцев, но впоследствии были куплены писателем и подарены жене во время отдыха во Франции. Кто организовал и совершил дерзкое преступление в самом центре советской столицы? Следы расследования ведут наверх – в дело оказываются впутанными иностранные дипломаты и даже дочь генерального секретаря КПСС…-Качество: dvdrip
Формат: avi
Видео кодек: Xvid
Аудио кодек: MPEG Audio Layer 3
Видео: Xvid 1024x576 25.00fps Bit rate 1 076 Kbps Bits/(Pixel*Frame) 0.073
Аудио: MPEG Audio Layer 3 48000Hz stereo 192kbps-

мinfo

Complete name \Охотники за бриллиантами by demonvideo\01.avi
Format : AVI
Format/Info : Audio Video Interleave
File size : 491 MiB
Duration : 53mn 37s
Overall bit rate : 1 281 Kbps
Writing application : Lavf52.94.0
Video
ID : 0
Format : xvid
Codec ID : xvid
Duration : 53mn 37s
Bit rate : 1 076 Kbps
Width : 1 024 pixels
Height : 576 pixels
Display aspect ratio : 16:9
Frame rate : 25.000 fps
Bits/(Pixel*Frame) : 0.073
Stream size : 413 MiB (84%)
Audio
ID : 1
Format : MPEG Audio
Format version : Version 1
Format profile : Layer 3
Mode : Joint stereo
Mode extension : MS Stereo
Codec ID : 55
Codec ID/Hint : MP3
Duration : 53mn 37s
Bit rate mode : Constant
Bit rate : 192 Kbps
Channel(s) : 2 channels
Sampling rate : 48.0 KHz
Compression mode : Lossy
Stream size : 73.6 MiB (15%)
Alignment : Aligned on interleaves
Interleave, duration : 24 ms (0.60 video frame)

Скриншоты


_________________
Показать сообщения:    

Текущее время: Сегодня 19:30

Часовой пояс: GMT



Вы не можете начинать темы
Вы не можете отвечать на сообщения
Вы не можете редактировать свои сообщения
Вы не можете удалять свои сообщения
Вы не можете голосовать в опросах
Вы не можете прикреплять файлы к сообщениям
Вы не можете скачивать файлы