Важное объявление!
У Нас Все раздачи мультитрекерные, при нуле пиров в релизах, можете смело вставать на закачку!
 
Автор Сообщение

mihis

[Профиль] [ЛС]

Охотник на оленей / The Deer Hunter«Best Picture 1978»
Год выпуска: 1978
Страна: Великобритания, США, Universal Pictures, EMI Films
Жанр: Военная драма
Продолжительность: 03:03:43
Перевод: Профессиональный (многоголосый, закадровый)
Субтитры: Русские, Английские
Режиссер: Майкл Чимино
В ролях: Роберт Де Ниро, Мэрил Стрип, Кристофер Уокен, Джон Казале, Джон Сэвадж, Джордж Дзундза, Чак Эспегрен, Ширли Столер, Рутанья Алда, Пьер Сеги
Описание: В фильме рассказывается о судьбе трёх друзей, американцев русского происхождения, отправившихся на войну во Вьетнам. Фильм охватывает три периода их жизни: мирная жизнь в небольшом американском городке, работа на заводе, гуляние на свадьбе, охота с друзьями; затем война, кровь, плен, побег и кошмары, разрушение всех представлений о жизни; и затем возвращение в мирную жизнь, попытка снова адаптироваться и влиться в нормальное общество. Один из друзей возвращается из Вьетнама инвалидом, он поселяется в госпитале, боясь вернуться домой к своей молодой жене. Другой, чья психика серьёзно пострадала, уходит в самоволку и становится игроком на подпольном тотализаторе в «русскую рулетку». И только один пытается вернуться в мирную жизнь. Но и ему уже невозможно стать тем, каким он был до войны, война серьёзно изменила и его психику и отношение к миру, но он надеется помочь друзьям.

Качество: BDRip-AVC
Формат: MKV
Видео кодек: H.264
Аудио кодек: AC3
Видео: AVC, 1024x436 (2.35:1), 23.976 fps, 1 311 Kbps (0.122 bit/pixel)
Аудио: AC-3, 48.0 KHz, 6 ch, 384 Kbps, CBR (Russian)

Награды

Премия Японской киноакадемии и «Голубая лента» за лучшую иностранную картину в Японии по итогам 1979 года, включён в 1996 году в Национальный регистр фильмов.
Британская академия, 1980 год
Победитель (2):
Лучшая работа оператора
Лучший монтаж
Номинации (7):
Лучший фильм
Лучшая мужская роль (Роберт Де Ниро)
Лучшая женская роль (Мэрил Стрип)
Лучшая мужская роль второго плана (Кристофер Уокен)
Лучший режиссер (Майкл Чимино)
Лучший сценарий
Лучший саундтрек
Оскар, 1979 год
Победитель (5):
Лучший фильм
Лучшая мужская роль второго плана (Кристофер Уокен)
Лучший режиссер (Майкл Чимино)
Лучший звук
Лучший монтаж
Номинации (4):
Лучшая мужская роль (Роберт Де Ниро)
Лучшая женская роль второго плана (Мэрил Стрип)
Лучший сценарий
Лучшая работа оператора
Золотой глобус, 1979 год
Победитель (1):
Лучший режиссер (Майкл Чимино)
Номинации (5):
Лучшая мужская роль (драма) (Роберт Де Ниро)
Лучший фильм (драма)
Лучшая женская роль второго плана (Мэрил Стрип)
Лучшая мужская роль второго плана (Кристофер Уокен)
Лучший сценарий

MediaInfo

Общее
Уникальный идентификатор : 209664518712528186564602705754041792458 (0x9DBBEAE06380CC78AD3DBCBFFE4EB7CA)
Полное имя : D:The Deer Hunter.1978.BDRip-AVC.PT.mkv
Формат : Matroska
Версия формата : Version 2
Размер файла : 2,18 Гбайт
Продолжительность : 3 ч. 3 м.
Общий поток : 1696 Кбит/сек
Название фильма : Охотник на оленей / The Deer Hunter (1978) BDRip-AVC rip by rulya74
Дата кодирования : UTC 2012-07-23 04:02:49
Программа кодирования : mkvmerge v5.7.0 ('The Whirlwind') built on Jul 8 2012 20:08:51
Библиотека кодирования : libebml v1.2.3 + libmatroska v1.3.0
Видео
Идентификатор : 1
Формат : AVC
Формат/Информация : Advanced Video Codec
Профиль формата : High@L4.1
Параметр CABAC формата : Да
Параметр ReFrames формата : 9 кадров
Идентификатор кодека : V_MPEG4/ISO/AVC
Продолжительность : 3 ч. 3 м.
Битрейт : 1311 Кбит/сек
Ширина : 1024 пикселя
Высота : 436 пикселей
Соотношение сторон : 2,35:1
Частота кадров : 23,976 кадра/сек
Цветовое пространство : YUV
Субдискретизация насыщенности : 4:2:0
Битовая глубина : 8 бит
Тип развёртки : Прогрессивная
Бит/(Пиксели*Кадры) : 0.122
Размер потока : 1,64 Гбайт (75%)
Библиотека кодирования : x264 core 125 r2200 999b753
Настройки программы : cabac=1 / ref=9 / deblock=1:-3:-2 / analyse=0x3:0x113 / me=umh / subme=9 / psy=1 / psy_rd=1.00:0.00 / mixed_ref=1 / me_range=40 / chroma_me=1 / trellis=2 / 8x8dct=1 / cqm=0 / deadzone=21,11 / fast_pskip=1 / chroma_qp_offset=-2 / threads=12 / lookahead_threads=2 / sliced_threads=0 / nr=0 / decimate=1 / interlaced=0 / bluray_compat=0 / constrained_intra=0 / bframes=9 / b_pyramid=2 / b_adapt=1 / b_bias=0 / direct=3 / weightb=1 / open_gop=0 / weightp=2 / keyint=240 / keyint_min=23 / scenecut=40 / intra_refresh=0 / rc=2pass / mbtree=0 / bitrate=1311 / ratetol=1.0 / qcomp=0.60 / qpmin=10 / qpmax=51 / qpstep=4 / cplxblur=20.0 / qblur=0.5 / ip_ratio=1.40 / pb_ratio=1.30 / aq=1:1.00
Default : Да
Forced : Нет
Аудио
Идентификатор : 2
Формат : AC-3
Формат/Информация : Audio Coding 3
Расширение режима : CM (complete main)
Идентификатор кодека : A_AC3
Продолжительность : 3 ч. 3 м.
Вид битрейта : Постоянный
Битрейт : 384 Кбит/сек
Каналы : 6 каналов
Расположение каналов : Front: L C R, Side: L R, LFE
Частота : 48,0 КГц
Битовая глубина : 16 бит
Метод сжатия : С потерями
Размер потока : 505 Мбайт (23%)
Заголовок : Профессиональный, многоголосый закадровый (Экстрабит-Амальгама)
Язык : Russian
Default : Да
Forced : Нет
Текст #1
Идентификатор : 3
Формат : UTF-8
Идентификатор кодека : S_TEXT/UTF8
Идентификатор кодека/Информация : UTF-8 Plain Text
Язык : Russian
Default : Да
Forced : Нет
Текст #2
Идентификатор : 4
Формат : UTF-8
Идентификатор кодека : S_TEXT/UTF8
Идентификатор кодека/Информация : UTF-8 Plain Text
Язык : English
Default : Нет
Forced : Нет
Меню
00:00:00.000 : en:00:00:00.000
00:13:54.125 : en:00:13:54.125
00:22:37.398 : en:00:22:37.398
00:52:32.191 : en:00:52:32.191
01:05:03.358 : en:01:05:03.358
01:08:47.373 : en:01:08:47.373
01:11:55.436 : en:01:11:55.436
01:16:33.923 : en:01:16:33.923
01:26:19.549 : en:01:26:19.549
01:36:37.333 : en:01:36:37.333
01:44:39.982 : en:01:44:39.982
02:27:39.768 : en:02:27:39.768
02:34:20.460 : en:02:34:20.460
02:36:52.987 : en:02:36:52.987
02:51:25.901 : en:02:51:25.901
02:57:31.933 : en:02:57:31.933
 
Показать сообщения:    

Текущее время: Сегодня 03:19

Часовой пояс: GMT



Вы не можете начинать темы
Вы не можете отвечать на сообщения
Вы не можете редактировать свои сообщения
Вы не можете удалять свои сообщения
Вы не можете голосовать в опросах
Вы не можете прикреплять файлы к сообщениям
Вы не можете скачивать файлы
Наши партнеры: интернет магазин Ивановского трикотажа textilla.ru