Важное объявление!
У Нас Все раздачи мультитрекерные, при нуле пиров в релизах, можете смело вставать на закачку!
 
Автор Сообщение

HUNTER

Стаж:
4 года 4 месяца
Сообщений:
56790

Репутация: 101

[+] [-]
Вне форума [Профиль] [ЛС]

Охотник на крокодилов: Схватка / The Crocodile Hunter: Collision Course-
Страна: Австралия, США
Студия: Metro-Goldwyn-Mayer
Жанр: комедия, приключения, семейный
Год выпуска: 2002
Продолжительность: 01:25:30-Перевод: Профессиональный (двухголосый закадровый) НТВ+ | Наталья Казначеева, Игорь Тарадайкин
Cубтитры: нет
Оригинальная аудиодорожка: английский-Режиссер: Джон Стейнтон / John Stainton
В ролях: Стив Ирвин, Терри Ирвин, Магда Шубански, Дэвид Уэнэм, Лейчи Халм, Аден Янг, Кеннет Рэнсом, Кейт Бихан, Стив Бастони, Стивен Видлер- | Релиз: -Описание: «Охотник на крокодилов» — популярное шоу на канале Animal Planet, главные ведущие которого Стив и Терри Ирвин разыскивают диких животных, которые блуждают слишком близко к цивилизации. Стив часто «хватает» животных, подвергая свою жизнь большой опасности. Он известен тем, что его кусали, резали, отравляли, кололи и высмеивали животные, которых он спасает. Стив также любит снимать из любых положений, не смотря на угрозы своей собственной жизни. Когда Стив спасает своего последнего крокодила, то он еще не знает, что этот «детеныш» является на самом деле сверхсекретным оружием ЦРУ, а браконьеры, выслеживающие его — действительно тайные агенты.-Семпл: http://sendfile.su/1141782-Тип релиза: HDTV 1080i
Контейнер: TS
Видео: 1920x1080i (16:9), 25.000 fps, AVC, ~7948 Kbps, 0.153 bits/pixel
Аудио 1: Русский, 48.0 KHz, MPEG-1 Audio layer 2, 2 ch, 192 kbps
Аудио 2: English, 48.0 KHz, MPEG-1 Audio layer 2, 2 ch, 192 kbps

MediaInfo

GeneralID : 1 (0x1)Complete name : The Crocodile Hunter - Collision Course 2002 MGMHD 1080i.rus.eng.tsFormat : MPEG-TSFile size : 5.24 GiBDuration : 1h 25mnOverall bit rate mode : VariableOverall bit rate : 8 769 KbpsMaximum Overall bit rate : 35.5 Mbps
VideoID : 4113 (0x1011)Menu ID : 1 (0x1)Format : AVCFormat/Info : Advanced Video CodecFormat profile : Main@L4Format settings, CABAC : YesFormat settings, ReFrames : 4 framesCodec ID : 27Duration : 1h 25mnBit rate : 7 948 KbpsWidth : 1 920 pixelsHeight : 1 080 pixelsDisplay aspect ratio : 16:9Frame rate : 25.000 fpsStandard : ComponentColor space : YUVChroma subsampling : 4:2:0Bit depth : 8 bitsScan type : InterlacedScan order : Top Field FirstBits/(Pixel*Frame) : 0.153Stream size : 4.75 GiB (91%)Color range : LimitedColor primaries : BT.709Transfer characteristics : BT.709Matrix coefficients : BT.709
Audio #1ID : 4352 (0x1100)Menu ID : 1 (0x1)Format : MPEG AudioFormat version : Version 1Format profile : Layer 2Codec ID : 4Duration : 1h 25mnBit rate mode : ConstantBit rate : 192 KbpsChannel(s) : 2 channelsSampling rate : 48.0 KHzCompression mode : LossyStream size : 117 MiB (2%)Language : Russian
Audio #2ID : 4353 (0x1101)Menu ID : 1 (0x1)Format : MPEG AudioFormat version : Version 1Format profile : Layer 2Codec ID : 4Duration : 1h 25mnBit rate mode : ConstantBit rate : 192 KbpsChannel(s) : 2 channelsSampling rate : 48.0 KHzCompression mode : LossyStream size : 117 MiB (2%)Language : English

_________________
Показать сообщения:    

Текущее время: Сегодня 13:13

Часовой пояс: GMT



Вы не можете начинать темы
Вы не можете отвечать на сообщения
Вы не можете редактировать свои сообщения
Вы не можете удалять свои сообщения
Вы не можете голосовать в опросах
Вы не можете прикреплять файлы к сообщениям
Вы не можете скачивать файлы