Важное объявление!
У Нас Все раздачи мультитрекерные, при нуле пиров в релизах, можете смело вставать на закачку!
 
Автор Сообщение

HUNTER

Стаж:
4 года 4 месяца
Сообщений:
56755

Репутация: 101

[+] [-]
Вне форума [Профиль] [ЛС]


Отчетность. Часть 1. Налог на прибыль-Год выпуска: 2010
Страна: Россия
Сайт производителя: отсутствуeт
Тематика: финансы
Тип материала: Обучающее видео
Продолжительность: 01:17:43
Автор: Мацнева О. В.
Язык: Русский
Субтитры: отсутствуют-Описание: Мацнева Ольга Владимировна, руководитель Службы Правового Консалтинга Консалтинговой группы РУНА, автор сборников «Годовой отчет 2010», «Налоговое планирование. Взгляд практика», «Порядок обжалования налоговых проверок в 2010 году» и других.-Качество: WEBRip
Формат: AVI
Видео кодек: Sorenr
Аудио кодек: MP3
Видео: 720х576 (5:4), 25.000 fps, Sorenson, ~855 Kbps, 0.082 bit/pixel
Аудио: 44.1 KHz, MPEG Layer 3, 2 ch, ~99.7 Kbps-

Доп. информация

Информация о мероприятии:
Зрители видеосеминара получат информацию по основным требованиям к составлению налоговой и бухгалтерской отчетности.

Содержание

План видеосеминара:
Часть 1. Налог на добавленную стоимость
Часть 2. Налог на прибыль
Часть 3. Налог на доходы физических лиц
Часть 4. Страховые взносы
Часть 5. Бухгалтерская отчетность

MediaInfo

Код: copyText_writeLink('this.parentNode.parentNode.nextSibling.nextSibling'); Общее
Полное имя : D:\обуч\prib_Original.avi
Формат : AVI
Формат/Информация : Audio Video Interleave
Размер файла : 528 Мбайт
Продолжительность : 1 ч. 17 м.
Режим общего битрейта : Переменный
Общий поток : 950 Кбит/сек
Программа кодирования : MEncoder Sherpya-SVN-r30075-4.2.5
Библиотека кодирования : MPlayer
Видео
Идентификатор : 0
Формат : Sorenson Spark
Идентификатор кодека : FLV1
Продолжительность : 1 ч. 17 м.
Битрейт : 837 Кбит/сек
Ширина : 720 пикселей
Высота : 576 пикселей
Соотношение сторон : 5:4
Частота кадров : 25,000 кадров/сек
Стандарт вещания : PAL
Бит/(Пиксели*Кадры) : 0.081
Размер потока : 465 Мбайт (88%)
Аудио
Идентификатор : 1
Формат : MPEG Audio
Версия формата : Version 1
Профиль формата : Layer 3
Режим : Joint stereo
Расширение режима : MS Stereo
Идентификатор кодека : 55
Идентификатор кодека/Подсказка : MP3
Продолжительность : 1 ч. 17 м.
Вид битрейта : Переменный
Битрейт : 99,8 Кбит/сек
Каналы : 2 канала
Частота : 44,1 КГц
Метод сжатия : С потерями
Размер потока : 55,5 Мбайт (11%)
Выравнивание : Соединение по промежуткам
Продолжительность промежутка : 26 мс. (0,65 видеокадр)
Время предзагрузки промежутка : 459 мс.

Скриншоты

-

_________________
Показать сообщения:    

Текущее время: Сегодня 13:50

Часовой пояс: GMT



Вы не можете начинать темы
Вы не можете отвечать на сообщения
Вы не можете редактировать свои сообщения
Вы не можете удалять свои сообщения
Вы не можете голосовать в опросах
Вы не можете прикреплять файлы к сообщениям
Вы не можете скачивать файлы