Важное объявление!
У Нас Все раздачи мультитрекерные, при нуле пиров в релизах, можете смело вставать на закачку!
 
Автор Сообщение

HUNTER

Стаж:
4 года 4 месяца
Сообщений:
56749

Репутация: 101

[+] [-]
Вне форума [Профиль] [ЛС]

ОтступлениеBacktrack-
Год выпуска: 2015
Страна: Австралия
Жанр: триллер, детектив

Продолжительность: 01:26:06-Перевод: Любительский (двухголосый) [Parovoz Production] присутствуют вставки голосовой и текстовой рекламы.
Субтитры: Нет
Режиссер: Майкл Петрони / Michael Petroni
В ролях: Эдриан Броуди (Peter Bower), Сэм Нил (Duncan Stewart), Брюс Спенс (Felix), Робин МакЛиви (Barbara Henning), Дженни Бейрд (Carol Bower), Анна Лизе Филлипс (Erica George), Хлоя Бэйлисс (Elizabeth Valentine), Ольга Миллер (Erica George (ghost)), Малкольм Кеннард (Barry), Милан Пулвермахер, Майкл Уолли (Officer Samuels), Сьюзи Стин (Teacher)-Описание: Жизнь психолога Питера Бауэрса меняется не в лучшую сторону, когда он понимает, что его пациенты - призраки людей, умерших в результате несчастного случая 20 лет назад. Боясь сойти с ума, Питер возвращается в свой родной город, где раскрывает ужасающую правду, которую может исправить только он.--Качество: WEB-DLRip-AVC
Контейнер: MKV
Видео кодек: AVC
Аудио кодек: AC3
Видео: AVC, 1040x432 (2.40:1), 2100 kbps, 25 fps, 0,187 bpp
Аудио: Русский / AC3 / 2.0 / 48 kHz / 192 kbps / 16 bit - -

Скриншоты

Media Info

General
Unique ID : 170893610409436054785072729086075920910 (0x8090E98343E3C84A8540480C87C8E20E)
Complete name : D:\Торрент\Отступление.2015.WEB-DLRip-AVC.mkv
Format : Matroska
Format version : Version 4 / Version 2
File size : 1.38 GiB
Duration : 1h 26mn
Overall bit rate : 2 292 Kbps
Encoded date : UTC 2016-02-05 08:32:07
Writing application : mkvmerge v8.8.0 ('Wind at my back') 32bit
Writing library : libebml v1.3.3 + libmatroska v1.4.4
Video
ID : 1
Format : AVC
Format/Info : Advanced Video Codec
Format profile : High@L4.1
Format settings, CABAC : Yes
Format settings, ReFrames : 5 frames
Codec ID : V_MPEG4/ISO/AVC
Duration : 1h 26mn
Bit rate : 2 100 Kbps
Width : 1 040 pixels
Height : 432 pixels
Display aspect ratio : 2.40:1
Frame rate : 25.000 fps
Color space : YUV
Chroma subsampling : 4:2:0
Bit depth : 8 bits
Scan type : Progressive
Bits/(Pixel*Frame) : 0.187
Stream size : 1.24 GiB (90%)
Writing library : x264 core 148 r2597M e86f3a1
Encoding settings : cabac=1 / ref=5 / deblock=1:-1:-1 / analyse=0x3:0x133 / me=umh / subme=9 / psy=1 / psy_rd=1.00:0.15 / mixed_ref=1 / me_range=16 / chroma_me=1 / trellis=1 / 8x8dct=1 / cqm=0 / deadzone=21,11 / fast_pskip=1 / chroma_qp_offset=-3 / threads=4 / lookahead_threads=1 / sliced_threads=0 / nr=0 / decimate=1 / interlaced=0 / bluray_compat=0 / constrained_intra=0 / bframes=5 / b_pyramid=2 / b_adapt=2 / b_bias=0 / direct=3 / weightb=1 / open_gop=0 / weightp=2 / keyint=250 / keyint_min=25 / scenecut=40 / intra_refresh=0 / rc_lookahead=40 / rc=2pass / mbtree=1 / bitrate=2100 / ratetol=1.0 / qcomp=0.60 / qpmin=0 / qpmax=69 / qpstep=4 / cplxblur=20.0 / qblur=0.5 / ip_ratio=1.40 / aq=1:1.00
Default : Yes
Forced : No
DURATION : 01:26:06.040000000
NUMBER_OF_FRAMES : 129151
NUMBER_OF_BYTES : 1355016880
_STATISTICS_WRITING_APP : mkvmerge v8.8.0 ('Wind at my back') 32bit
_STATISTICS_WRITING_DATE_UTC : 2016-02-05 08:32:07
_STATISTICS_TAGS : BPS DURATION NUMBER_OF_FRAMES NUMBER_OF_BYTES
Audio
ID : 2
Format : AC-3
Format/Info : Audio Coding 3
Mode extension : CM (complete main)
Codec ID : A_AC3
Duration : 1h 26mn
Bit rate mode : Constant
Bit rate : 192 Kbps
Channel(s) : 2 channels
Channel positions : Front: L R
Sampling rate : 48.0 KHz
Bit depth : 16 bits
Compression mode : Lossy
Delay relative to video : 27ms
Stream size : 118 MiB (8%)
Language : Russian
Default : Yes
Forced : No
DURATION : 01:26:06.016000000
NUMBER_OF_FRAMES : 161438
NUMBER_OF_BYTES : 123984384
_STATISTICS_WRITING_APP : mkvmerge v8.8.0 ('Wind at my back') 32bit
_STATISTICS_WRITING_DATE_UTC : 2016-02-05 08:32:07
_STATISTICS_TAGS : BPS DURATION NUMBER_OF_FRAMES NUMBER_OF_BYTES

_________________
Показать сообщения:    

Текущее время: Сегодня 01:41

Часовой пояс: GMT



Вы не можете начинать темы
Вы не можете отвечать на сообщения
Вы не можете редактировать свои сообщения
Вы не можете удалять свои сообщения
Вы не можете голосовать в опросах
Вы не можете прикреплять файлы к сообщениям
Вы не можете скачивать файлы