Важное объявление!
У Нас Все раздачи мультитрекерные, при нуле пиров в релизах, можете смело вставать на закачку!
 
Автор Сообщение

HUNTER

Стаж:
4 года 4 месяца
Сообщений:
56765

Репутация: 101

[+] [-]
Вне форума [Профиль] [ЛС]

Отпуск летом
Год выпуска: 2014
Производство: Россия, студия Жар-Птица
Жанр: Мелодрама
Продолжительность: 01:30:14
Субтитры: нет
Режиссёр: Артем Насыбулин
В ролях: Светлана Тимофеева-Летуновская, Александр Дьяченко, Ксения Разина, Валерий Новиков, Екатерина Семёнова
Описание: Скромная сотрудница регистратуры поликлиники, мать-одиночка бальзаковского возраста, никогда не бывшая замужем, выиграла в лотерею две недели отдыха в роскошном отеле. Это был ее первый летний отпуск за много лет. Анна Петровна и подумать не могла, что этот отпуск круто изменит ее саму и всю ее жизнь…

Качество: HDTV 1080i
Контейнер: TS
Видео: MPEG4 Video (H264) 1920x1080, ~ 7902 Кбит/сек, 25.00fps 0.152 bit/pixel
Аудио: MP2, 2 ch, 48,0 КГц, 192 Кбит/с
Сторонней рекламы нет!

MediaInfo

General
ID : 1 (0x1)
Complete name : Otpusk.letom.2014.HDTV.1080i.ts
Format : MPEG-TS
File size : 5.41 GiB
Duration : 1h 30mn
Overall bit rate mode : Variable
Overall bit rate : 8 517 Kbps
Video
ID : 2911 (0xB5F)
Menu ID : 1028 (0x404)
Format : AVC
Format/Info : Advanced Video Codec
Format profile : High@L4.0
Format settings, CABAC : Yes
Format settings, ReFrames : 4 frames
Codec ID : 27
Duration : 1h 30mn
Bit rate : 7 902 Kbps
Width : 1 920 pixels
Height : 1 080 pixels
Display aspect ratio : 16:9
Frame rate : 25.000 fps
Color space : YUV
Chroma subsampling : 4:2:0
Bit depth : 8 bits
Scan type : MBAFF
Bits/(Pixel*Frame) : 0.152
Stream size : 5.02 GiB (93%)
Audio
ID : 2912 (0xB60)
Menu ID : 1028 (0x404)
Format : MPEG Audio
Format version : Version 1
Format profile : Layer 2
Mode : Joint stereo
Mode extension : Intensity Stereo + MS Stereo
Codec ID : 3
Duration : 1h 30mn
Bit rate mode : Constant
Bit rate : 192 Kbps
Channel count : 2 channels
Sampling rate : 48.0 KHz
Compression mode : Lossy
Stream size : 125 MiB (2%)
Language : Russian
Раздача группы:
Отдельное спасибо daboen за предоставление материала.

Скриншот c названием фильма

Скриншоты


_________________
Показать сообщения:    

Текущее время: Сегодня 20:19

Часовой пояс: GMT



Вы не можете начинать темы
Вы не можете отвечать на сообщения
Вы не можете редактировать свои сообщения
Вы не можете удалять свои сообщения
Вы не можете голосовать в опросах
Вы не можете прикреплять файлы к сообщениям
Вы не можете скачивать файлы